  0
SECTION
  2
HEADER
  9
$ACADVER
  1
AC1009
  9
$ANGBASE
 50
0.0000000000
  9
$ANGDIR
 70
     0
  9
$ATTDIA
 70
     0
  9
$ATTMODE
 70
     1
  9
$ATTREQ
 70
     1
  9
$AUNITS
 70
     0
  9
$AUPREC
 70
     0
  9
$AXISMODE
 70
     0
  9
$AXISUNIT
 10
0.0000000000
 20
0.0000000000
  9
$BLIPMODE
 70
     1
  9
$CECOLOR
 62
   256
  9
$CELTYPE
  6
BYLAYER
  9
$CHAMFERA
 40
0.0000000000
  9
$CHAMFERB
 40
0.0000000000
  9
$CLAYER
  8
0
  9
$COORDS
 70
     0
  9
$DIMALT
 70
     0
  9
$DIMALTD
 70
     2
  9
$DIMALTF
 40
25.4000000000
  9
$DIMAPOST
  1

  9
$DIMASO
 70
     1
  9
$DIMASZ
 40
0.1154080890
  9
$DIMBLK
  1

  9
$DIMBLK1
  1

  9
$DIMBLK2
  1

  9
$DIMCEN
 40
9.0000000000E-02
  9
$DIMDLE
 40
0.0000000000
  9
$DIMDLI
 40
0.3800000000
  9
$DIMEXE
 40
0.1500000060
  9
$DIMEXO
 40
0.1000000015
  9
$DIMLFAC
 40
1.0000000000
  9
$DIMLIM
 70
     0
  9
$DIMPOST
  1

  9
$DIMRND
 40
0.0000000000
  9
$DIMSCALE
 40
1.0000000000
  9
$DIMSE1
 70
     0
  9
$DIMSE2
 70
     0
  9
$DIMSHO
 70
     0
  9
$DIMTAD
 70
     0
  9
$DIMTIH
 70
     0
  9
$DIMTM
 40
0.0000000000
  9
$DIMTOH
 70
     1
  9
$DIMTOL
 70
     0
  9
$DIMTP
 40
0.0000000000
  9
$DIMTSZ
 40
0.0000000000
  9
$DIMTXT
 40
6.1999998987E-02
  9
$DIMZIN
 70
     0
  9
$DRAGMODE
 70
     1
  9
$DWGCODEPAGE
  3
ansi_1252
  9
$ELEVATION
 40
0.0000000000
  9
$EXTMAX
 10
5.1125006676
 20
4.1716866493
 30
0.0000000000
  9
$EXTMIN
 10
-5.6249995232
 20
-3.8899998665
 30
0.0000000000
  9
$FASTZOOM
 70
     1
  9
$FILLETRAD
 40
6.2500000000E-02
  9
$FILLMODE
 70
     1
  9
$GRIDMODE
 70
     0
  9
$GRIDUNIT
 10
0.0000000000
 20
0.0000000000
  9
$INSBASE
 10
0.0000000000
 20
0.0000000000
 30
0.0000000000
  9
$LIMCHECK
 70
     0
  9
$LIMMAX
 10
5.1125006676
 20
4.1716866493
  9
$LIMMIN
 10
-5.6249995232
 20
-3.8899998665
  9
$LTSCALE
 40
1.0000000000
  9
$LUNITS
 70
     2
  9
$LUPREC
 70
     3
  9
$MEASUREMENT
 70
     0
  9
$MENU
  1
ACAD
  9
$MIRRTEXT
 70
     0
  9
$ORTHOMODE
 70
     0
  9
$OSMODE
 70
     0
  9
$PDMODE
 70
     0
  9
$PDSIZE
 40
0.0000000000
  9
$PLINEWID
 40
0.0000000000
  9
$PROXYGRAPHICS
 70
     0
  9
$QTEXTMODE
 70
     0
  9
$REGENMODE
 70
     1
  9
$SKETCHINC
 40
0.1000000000
  9
$SKPOLY
 70
     0
  9
$SNAPANG
 50
0.0000000000
  9
$SNAPBASE
 10
0.0000000000
 20
0.0000000000
  9
$SNAPISOPAIR
 70
     0
  9
$SNAPMODE
 70
     0
  9
$SNAPSTYLE
 70
     0
  9
$SNAPUNIT
 10
1.0000000000
 20
1.0000000000
  9
$SPLFRAME
 70
     0
  9
$SPLINESEGS
 70
     8
  9
$TDCREATE
 40
2453313.4572916717
  9
$TDINDWG
 40
0.0000000000
  9
$TDUPDATE
 40
2453313.4572916717
  9
$TDUSRTIMER
 40
0.0000000000
  9
$TEXTSIZE
 40
6.1999998987E-02
  9
$TEXTSTYLE
  7
STANDARD
  9
$THICKNESS
 40
0.0000000000
  9
$TRACEWID
 40
5.0000000000E-02
  9
$USERI1
 70
     0
  9
$USERI2
 70
     0
  9
$USERI3
 70
     0
  9
$USERI4
 70
     0
  9
$USERI5
 70
     0
  9
$USERR1
 40
0.0000000000
  9
$USERR2
 40
0.0000000000
  9
$USERR3
 40
0.0000000000
  9
$USERR4
 40
0.0000000000
  9
$USERR5
 40
0.0000000000
  9
$USRTIMER
 70
     1
  9
$VIEWCTR
 10
-0.2562494278
 20
0.1408433914
  9
$VIEWDIR
 10
0.0000000000
 20
0.0000000000
 30
1.0000000000
  9
$VIEWSIZE
 40
8.0616865158
  0
ENDSEC
  0
SECTION
  2
TABLES
  0
TABLE
  2
LTYPE
 70
     4
  0
LTYPE
  2
SOLID
  3
Solid
 70
    64
 72
    65
 73
     0
 40
0.0000000000
  0
LTYPE
  2
CENTERLINE
  3
Centerline
 70
    64
 72
    65
 73
     4
 40
1.0000000000
 49
0.7500000000
 49
-6.2500000000E-02
 49
0.1250000000
 49
-6.2500000000E-02
  0
LTYPE
  2
CONSTRUCTION
  3
Construction
 70
    64
 72
    65
 73
     2
 40
4.0000000000E-02
 49
1.0000000000E-02
 49
-3.0000000000E-02
  0
LTYPE
  2
GAP
  3
Gap
 70
    64
 72
    65
 73
     3
 40
100.0599999987
 49
0.0000000000
 49
-5.9999998659E-02
 49
100.0000000000
  0
ENDTAB
  0
TABLE
  2
LAYER
 70
    10
  0
LAYER
  2
Layer0$C$L0
 70
     0
  6
SOLID
 62
     2
  0
LAYER
  2
Layer0$C$L0$B
 70
     0
  6
SOLID
 62
    -2
  0
LAYER
  2
Layer2$C$L2
 70
     0
  6
SOLID
 62
     2
  0
LAYER
  2
Layer10$C$L10
 70
     0
  6
SOLID
 62
     2
  0
LAYER
  2
Layer40$C$L40
 70
     0
  6
SOLID
 62
   221
  0
LAYER
  2
Layer100$C$L100
 70
     0
  6
SOLID
 62
    30
  0
LAYER
  2
Layer120$C$L120
 70
     0
  6
SOLID
 62
    91
  0
LAYER
  2
Layer140$C$L140
 70
     0
  6
SOLID
 62
   230
  0
LAYER
  2
Layer200$C$L200
 70
     0
  6
SOLID
 62
     7
  0
LAYER
  2
Layer220$C$L220
 70
     0
  6
SOLID
 62
     4
  0
ENDTAB
  0
TABLE
  2
STYLE
 70
     1
  0
STYLE
  2
STANDARD
  3
txt
  4

 40
0.0000000000
 41
1.0000000000
 42
9.3999996781E-02
 50
0.0000000000
 70
     0
 71
     0
  0
ENDTAB
  0
TABLE
  2
DIMSTYLE
 70
     2
  0
DIMSTYLE
  2
STANDARD
 70
     0
  3

  4

  5

  6

  7

 40
1.0000000000
 41
0.1800000000
 42
0.0000000000
 43
0.3800000000
 44
0.0000000000
 45
0.0000000000
 46
0.0000000000
 47
0.0000000000
 48
0.0000000000
140
0.1560000000
141
9.0000000000E-02
142
0.0000000000
143
1.0000000000
144
1.0000000000
145
0.0000000000
146
1.0000000000
147
7.8000000000E-02
 71
     0
 72
     0
 73
     0
 74
     0
 75
     0
 76
     0
 77
     3
 78
     0
170
     0
171
     0
172
     0
173
     0
174
     0
175
     0
176
     0
177
     0
178
     0
270
     2
271
     2
272
     2
273
     2
274
     2
275
     1
280
     0
281
     0
282
     0
283
     1
284
     0
285
     0
286
     0
287
     3
288
     0
  0
DIMSTYLE
  2
DIM1
 70
     1
  3

  4

  5

  6

  7

 40
1.0000000000
 41
0.1154080890
 42
0.1000000015
 43
0.3800000000
 44
0.1500000060
 45
0.0000000000
 46
0.0000000000
 47
0.0000000000
 48
0.0000000000
140
9.3999996781E-02
141
9.0000000000E-02
142
0.0000000000
143
25.4000000000
144
1.0000000000
145
0.0000000000
146
1.0000000000
147
4.6999998391E-02
 71
     0
 72
     0
 73
     1
 74
     1
 75
     0
 76
     0
 77
     0
 78
     0
170
     1
171
     1
172
     0
173
     0
174
     0
175
     0
176
     0
177
     0
178
     0
270
     2
271
     2
272
     2
273
     2
274
     1
275
     1
280
     0
281
     0
282
     0
283
     1
284
     0
285
     0
286
     0
287
     3
288
     0
  0
ENDTAB
  0
TABLE
  2
APPID
  5
1
100
AcDbSymbolTable
 70
     1
  0
APPID
  5
2
100
AcDbSymbolTableRecord
100
AcDbRegAppTableRecord
  2
ACAD
 70
     0
  0
ENDTAB
  0
ENDSEC
  0
SECTION
  2
BLOCKS
  0
BLOCK
  8
Layer220$C$L220
  2
*D0
 70
     1
 10
0.0000000000
 20
0.0000000000
  0
SOLID
  8
Layer220$C$L220
 10
-1.8852481222
 20
0.4542015157
 11
-1.8852481222
 21
0.4998526511
 12
-2.0000000000
 22
0.4770270834
 13
-2.0000000000
 23
0.4770270834
  0
LINE
  8
Layer220$C$L220
 10
-2.0000000000
 20
0.4770270834
 11
-1.8000000000
 21
0.4770270834
  0
SOLID
  8
Layer220$C$L220
 10
-2.7397518778
 20
0.4998526511
 11
-2.7397518778
 21
0.4542015157
 12
-2.6250000000
 22
0.4770270834
 13
-2.6250000000
 23
0.4770270834
  0
LINE
  8
Layer220$C$L220
 10
-2.6250000000
 20
0.4770270834
 11
-4.1585511093
 21
0.4770270834
  0
LINE
  8
Layer220$C$L220
  6
GAP
 10
-2.0000000000
 20
1.7149370521
 11
-2.0000000000
 21
0.4020270804
  0
LINE
  8
Layer220$C$L220
  6
GAP
 10
-2.6250000000
 20
0.9649370521
 11
-2.6250000000
 21
0.4020270804
  0
TEXT
  8
Layer220$C$L220
 10
-4.6504157401
 20
0.4300270850
 40
9.3999996781E-02
  1
  .63
 72
     5
 11
-4.2055511077
 21
0.4300270850
  0
LINE
  8
Layer220$C$L220
 10
-4.6504157401
 20
0.3595270923
 11
-4.6848479399
 21
0.3595270923
  0
LINE
  8
Layer220$C$L220
 10
-4.6848479399
 20
0.3595270923
 11
-4.6848479399
 21
0.1715270993
  0
LINE
  8
Layer220$C$L220
 10
-4.6848479399
 20
0.1715270993
 11
-4.6504157401
 21
0.1715270993
  0
LINE
  8
Layer220$C$L220
 10
-3.9509205520
 20
0.3595270923
 11
-3.9164883511
 21
0.3595270923
  0
TEXT
  8
Layer220$C$L220
 10
-4.6504157401
 20
0.2185270946
 40
9.3999996781E-02
  1
15.9 mm 
 72
     5
 11
-3.9235511116
 21
0.2185270946
  0
LINE
  8
Layer220$C$L220
 10
-3.9164883511
 20
0.3595270923
 11
-3.9164883511
 21
0.1715270993
  0
LINE
  8
Layer220$C$L220
 10
-3.9164883511
 20
0.1715270993
 11
-3.9509205520
 21
0.1715270993
  0
ENDBLK
  8
Layer220$C$L220
  0
BLOCK
  8
Layer220$C$L220
  2
*D1
 70
     1
 10
0.0000000000
 20
0.0000000000
  0
SOLID
  8
Layer220$C$L220
 10
0.6072274652
 20
2.2001851758
 11
0.6528786006
 21
2.2001851758
 12
0.6300530329
 22
2.3149370536
 13
0.6300530329
 23
2.3149370536
  0
LINE
  8
Layer220$C$L220
 10
0.6300530329
 20
2.3149370536
 11
0.6300530329
 21
2.0146870465
  0
SOLID
  8
Layer220$C$L220
 10
0.6528786006
 20
1.4296889314
 11
0.6072274652
 21
1.4296889314
 12
0.6300530329
 22
1.3149370536
 13
0.6300530329
 23
1.3149370536
  0
LINE
  8
Layer220$C$L220
 10
0.6300530329
 20
1.3149370536
 11
0.6300530329
 21
1.6151870606
  0
LINE
  8
Layer220$C$L220
  6
GAP
 10
-0.1499999985
 20
2.3149370536
 11
0.7050530359
 21
2.3149370536
  0
LINE
  8
Layer220$C$L220
  6
GAP
 10
-0.1499999985
 20
1.3149370536
 11
0.7050530359
 21
1.3149370536
  0
TEXT
  8
Layer220$C$L220
 10
0.2666207187
 20
1.8736870494
 40
9.3999996781E-02
  1
 1.00
 72
     5
 11
0.7114853510
 21
1.8736870494
  0
LINE
  8
Layer220$C$L220
 10
0.2666207187
 20
1.8031870567
 11
0.2321885189
 21
1.8031870567
  0
LINE
  8
Layer220$C$L220
 10
0.2321885189
 20
1.8031870567
 11
0.2321885189
 21
1.6151870637
  0
LINE
  8
Layer220$C$L220
 10
0.2321885189
 20
1.6151870637
 11
0.2666207187
 21
1.6151870637
  0
LINE
  8
Layer220$C$L220
 10
0.9661159068
 20
1.8031870567
 11
1.0005481077
 21
1.8031870567
  0
TEXT
  8
Layer220$C$L220
 10
0.2666207187
 20
1.6621870590
 40
9.3999996781E-02
  1
25.4 mm 
 72
     5
 11
0.9934853472
 21
1.6621870590
  0
LINE
  8
Layer220$C$L220
 10
1.0005481077
 20
1.8031870567
 11
1.0005481077
 21
1.6151870637
  0
LINE
  8
Layer220$C$L220
 10
1.0005481077
 20
1.6151870637
 11
0.9661159068
 21
1.6151870637
  0
ENDBLK
  8
Layer220$C$L220
  0
BLOCK
  8
Layer220$C$L220
  2
*D2
 70
     1
 10
0.0000000000
 20
0.0000000000
  0
SOLID
  8
Layer220$C$L220
 10
-4.3134713948
 20
2.1326889314
 11
-4.3591225301
 21
2.1326889314
 12
-4.3362969625
 22
2.0179370536
 13
-4.3362969625
 23
2.0179370536
  0
LINE
  8
Layer220$C$L220
 10
-4.3362969625
 20
2.0179370536
 11
-4.3362969625
 21
2.2179370536
  0
SOLID
  8
Layer220$C$L220
 10
-4.3591225301
 20
1.4971851758
 11
-4.3134713948
 21
1.4971851758
 12
-4.3362969625
 22
1.6119370536
 13
-4.3362969625
 23
1.6119370536
  0
LINE
  8
Layer220$C$L220
 10
-4.3362969625
 20
1.6119370536
 11
-4.3362969625
 21
1.2128419996
  0
LINE
  8
Layer220$C$L220
  6
GAP
 10
-3.3820000015
 20
2.0179370536
 11
-4.4112969654
 21
2.0179370536
  0
LINE
  8
Layer220$C$L220
  6
GAP
 10
-3.3820000015
 20
1.6119370536
 11
-4.4112969654
 21
1.6119370536
  0
TEXT
  8
Layer220$C$L220
 10
-4.6997292767
 20
1.0718420025
 40
9.3999996781E-02
  1
  .41
 72
     5
 11
-4.2548646444
 21
1.0718420025
  0
LINE
  8
Layer220$C$L220
 10
-4.6997292767
 20
1.0013420098
 11
-4.7341614765
 21
1.0013420098
  0
LINE
  8
Layer220$C$L220
 10
-4.7341614765
 20
1.0013420098
 11
-4.7341614765
 21
0.8133420168
  0
LINE
  8
Layer220$C$L220
 10
-4.7341614765
 20
0.8133420168
 11
-4.6997292767
 21
0.8133420168
  0
LINE
  8
Layer220$C$L220
 10
-4.0002340886
 20
1.0013420098
 11
-3.9658018877
 21
1.0013420098
  0
TEXT
  8
Layer220$C$L220
 10
-4.6997292767
 20
0.8603420121
 40
9.3999996781E-02
  1
10.3 mm 
 72
     5
 11
-3.9728646482
 21
0.8603420121
  0
LINE
  8
Layer220$C$L220
 10
-3.9658018877
 20
1.0013420098
 11
-3.9658018877
 21
0.8133420168
  0
LINE
  8
Layer220$C$L220
 10
-3.9658018877
 20
0.8133420168
 11
-4.0002340886
 21
0.8133420168
  0
ENDBLK
  8
Layer220$C$L220
  0
BLOCK
  8
Layer220$C$L220
  2
*D3
 70
     1
 10
0.0000000000
 20
0.0000000000
  0
SOLID
  8
Layer220$C$L220
 10
-2.5102481222
 20
4.5378901817E-02
 11
-2.5102481222
 21
9.1030037168E-02
 12
-2.6250000000
 22
6.8204469493E-02
 13
-2.6250000000
 23
6.8204469493E-02
  0
LINE
  8
Layer220$C$L220
 10
-2.6250000000
 20
6.8204469493E-02
 11
-2.2694323146
 21
6.8204469493E-02
  0
SOLID
  8
Layer220$C$L220
 10
-1.4897518778
 20
9.1030037168E-02
 11
-1.4897518778
 21
4.5378901817E-02
 12
-1.3750000000
 22
6.8204469493E-02
 13
-1.3750000000
 23
6.8204469493E-02
  0
LINE
  8
Layer220$C$L220
 10
-1.3750000000
 20
6.8204469493E-02
 11
-1.7305676854
 21
6.8204469493E-02
  0
LINE
  8
Layer220$C$L220
  6
GAP
 10
-2.6250000000
 20
0.9649370521
 11
-2.6250000000
 21
-6.7955334877E-03
  0
LINE
  8
Layer220$C$L220
  6
GAP
 10
-1.3750000000
 20
0.9649370521
 11
-1.3750000000
 21
-6.7955334877E-03
  0
TEXT
  8
Layer220$C$L220
 10
-2.2224323162
 20
2.1204471102E-02
 40
9.3999996781E-02
  1
 1.25
 72
     5
 11
-1.7775676838
 21
2.1204471102E-02
  0
LINE
  8
Layer220$C$L220
 10
-2.2224323162
 20
-4.9295521626E-02
 11
-2.2568645160
 21
-4.9295521626E-02
  0
LINE
  8
Layer220$C$L220
 10
-2.2568645160
 20
-4.9295521626E-02
 11
-2.2568645160
 21
-0.2372955146
  0
LINE
  8
Layer220$C$L220
 10
-2.2568645160
 20
-0.2372955146
 11
-2.2224323162
 21
-0.2372955146
  0
LINE
  8
Layer220$C$L220
 10
-1.5229371281
 20
-4.9295521626E-02
 11
-1.4885049272
 21
-4.9295521626E-02
  0
TEXT
  8
Layer220$C$L220
 10
-2.2224323162
 20
-0.1902955193
 40
9.3999996781E-02
  1
31.8 mm 
 72
     5
 11
-1.4955676877
 21
-0.1902955193
  0
LINE
  8
Layer220$C$L220
 10
-1.4885049272
 20
-4.9295521626E-02
 11
-1.4885049272
 21
-0.2372955146
  0
LINE
  8
Layer220$C$L220
 10
-1.4885049272
 20
-0.2372955146
 11
-1.5229371281
 21
-0.2372955146
  0
ENDBLK
  8
Layer220$C$L220
  0
BLOCK
  8
Layer220$C$L220
  2
*D4
 70
     1
 10
0.0000000000
 20
0.0000000000
  0
SOLID
  8
Layer220$C$L220
 10
-2.8552481222
 20
-0.5307105234
 11
-2.8552481222
 21
-0.4850593881
 12
-2.9700000000
 22
-0.5078849558
 13
-2.9700000000
 23
-0.5078849558
  0
LINE
  8
Layer220$C$L220
 10
-2.9700000000
 20
-0.5078849558
 11
-2.2694323146
 21
-0.5078849558
  0
SOLID
  8
Layer220$C$L220
 10
-1.1447518778
 20
-0.4850593881
 11
-1.1447518778
 21
-0.5307105234
 12
-1.0300000000
 22
-0.5078849558
 13
-1.0300000000
 23
-0.5078849558
  0
LINE
  8
Layer220$C$L220
 10
-1.0300000000
 20
-0.5078849558
 11
-1.7305676854
 21
-0.5078849558
  0
LINE
  8
Layer220$C$L220
  6
GAP
 10
-2.9700000000
 20
1.4713370521
 11
-2.9700000000
 21
-0.5828849587
  0
LINE
  8
Layer220$C$L220
  6
GAP
 10
-1.0300000000
 20
1.4713370521
 11
-1.0300000000
 21
-0.5828849587
  0
TEXT
  8
Layer220$C$L220
 10
-2.2224323162
 20
-0.5548849541
 40
9.3999996781E-02
  1
 1.94
 72
     5
 11
-1.7775676838
 21
-0.5548849541
  0
LINE
  8
Layer220$C$L220
 10
-2.2224323162
 20
-0.6253849469
 11
-2.2568645160
 21
-0.6253849469
  0
LINE
  8
Layer220$C$L220
 10
-2.2568645160
 20
-0.6253849469
 11
-2.2568645160
 21
-0.8133849398
  0
LINE
  8
Layer220$C$L220
 10
-2.2568645160
 20
-0.8133849398
 11
-2.2224323162
 21
-0.8133849398
  0
LINE
  8
Layer220$C$L220
 10
-1.5229371281
 20
-0.6253849469
 11
-1.4885049272
 21
-0.6253849469
  0
TEXT
  8
Layer220$C$L220
 10
-2.2224323162
 20
-0.7663849445
 40
9.3999996781E-02
  1
49.3 mm 
 72
     5
 11
-1.4955676877
 21
-0.7663849445
  0
LINE
  8
Layer220$C$L220
 10
-1.4885049272
 20
-0.6253849469
 11
-1.4885049272
 21
-0.8133849398
  0
LINE
  8
Layer220$C$L220
 10
-1.4885049272
 20
-0.8133849398
 11
-1.5229371281
 21
-0.8133849398
  0
ENDBLK
  8
Layer220$C$L220
  0
BLOCK
  8
Layer220$C$L220
  2
*D5
 70
     1
 10
0.0000000000
 20
0.0000000000
  0
SOLID
  8
Layer220$C$L220
 10
-3.1672481222
 20
-1.1940862252
 11
-3.1672481222
 21
-1.1484350899
 12
-3.2820000000
 22
-1.1712606576
 13
-3.2820000000
 23
-1.1712606576
  0
LINE
  8
Layer220$C$L220
 10
-3.2820000000
 20
-1.1712606576
 11
-2.2694323146
 21
-1.1712606576
  0
SOLID
  8
Layer220$C$L220
 10
-0.8327518778
 20
-1.1484350899
 11
-0.8327518778
 21
-1.1940862252
 12
-0.7180000000
 22
-1.1712606576
 13
-0.7180000000
 23
-1.1712606576
  0
LINE
  8
Layer220$C$L220
 10
-0.7180000000
 20
-1.1712606576
 11
-1.7305676854
 21
-1.1712606576
  0
LINE
  8
Layer220$C$L220
  6
GAP
 10
-3.2820000000
 20
1.4713370521
 11
-3.2820000000
 21
-1.2462606605
  0
LINE
  8
Layer220$C$L220
  6
GAP
 10
-0.7180000000
 20
1.4713370521
 11
-0.7180000000
 21
-1.2462606605
  0
TEXT
  8
Layer220$C$L220
 10
-2.2224323162
 20
-1.2182606560
 40
9.3999996781E-02
  1
 2.56
 72
     5
 11
-1.7775676838
 21
-1.2182606560
  0
LINE
  8
Layer220$C$L220
 10
-2.2224323162
 20
-1.2887606487
 11
-2.2568645160
 21
-1.2887606487
  0
LINE
  8
Layer220$C$L220
 10
-2.2568645160
 20
-1.2887606487
 11
-2.2568645160
 21
-1.4767606416
  0
LINE
  8
Layer220$C$L220
 10
-2.2568645160
 20
-1.4767606416
 11
-2.2224323162
 21
-1.4767606416
  0
LINE
  8
Layer220$C$L220
 10
-1.5229371281
 20
-1.2887606487
 11
-1.4885049272
 21
-1.2887606487
  0
TEXT
  8
Layer220$C$L220
 10
-2.2224323162
 20
-1.4297606463
 40
9.3999996781E-02
  1
65.1 mm 
 72
     5
 11
-1.4955676877
 21
-1.4297606463
  0
LINE
  8
Layer220$C$L220
 10
-1.4885049272
 20
-1.2887606487
 11
-1.4885049272
 21
-1.4767606416
  0
LINE
  8
Layer220$C$L220
 10
-1.4885049272
 20
-1.4767606416
 11
-1.5229371281
 21
-1.4767606416
  0
ENDBLK
  8
Layer220$C$L220
  0
BLOCK
  8
Layer220$C$L220
  2
*D6
 70
     1
 10
0.0000000000
 20
0.0000000000
  0
SOLID
  8
Layer220$C$L220
 10
-0.3647518778
 20
-1.7943535364
 11
-0.3647518778
 21
-1.8400046717
 12
-0.2500000000
 22
-1.8171791041
 13
-0.2500000000
 23
-1.8171791041
  0
LINE
  8
Layer220$C$L220
 10
-0.2500000000
 20
-1.8171791041
 11
-1.7305676854
 21
-1.8171791041
  0
SOLID
  8
Layer220$C$L220
 10
-3.6352481222
 20
-1.8400046717
 11
-3.6352481222
 21
-1.7943535364
 12
-3.7500000000
 22
-1.8171791041
 13
-3.7500000000
 23
-1.8171791041
  0
LINE
  8
Layer220$C$L220
 10
-3.7500000000
 20
-1.8171791041
 11
-2.2694323146
 21
-1.8171791041
  0
LINE
  8
Layer220$C$L220
  6
GAP
 10
-0.2500000000
 20
1.2149370521
 11
-0.2500000000
 21
-1.8921791070
  0
LINE
  8
Layer220$C$L220
  6
GAP
 10
-3.7500000000
 20
1.2149370521
 11
-3.7500000000
 21
-1.8921791070
  0
TEXT
  8
Layer220$C$L220
 10
-2.2224323162
 20
-1.8641791024
 40
9.3999996781E-02
  1
 3.50
 72
     5
 11
-1.7775676838
 21
-1.8641791024
  0
LINE
  8
Layer220$C$L220
 10
-2.2224323162
 20
-1.9346790952
 11
-2.2568645160
 21
-1.9346790952
  0
LINE
  8
Layer220$C$L220
 10
-2.2568645160
 20
-1.9346790952
 11
-2.2568645160
 21
-2.1226790881
  0
LINE
  8
Layer220$C$L220
 10
-2.2568645160
 20
-2.1226790881
 11
-2.2224323162
 21
-2.1226790881
  0
LINE
  8
Layer220$C$L220
 10
-1.5229371281
 20
-1.9346790952
 11
-1.4885049272
 21
-1.9346790952
  0
TEXT
  8
Layer220$C$L220
 10
-2.2224323162
 20
-2.0756790928
 40
9.3999996781E-02
  1
88.9 mm 
 72
     5
 11
-1.4955676877
 21
-2.0756790928
  0
LINE
  8
Layer220$C$L220
 10
-1.4885049272
 20
-1.9346790952
 11
-1.4885049272
 21
-2.1226790881
  0
LINE
  8
Layer220$C$L220
 10
-1.4885049272
 20
-2.1226790881
 11
-1.5229371281
 21
-2.1226790881
  0
ENDBLK
  8
Layer220$C$L220
  0
BLOCK
  8
Layer220$C$L220
  2
*D7
 70
     1
 10
0.0000000000
 20
0.0000000000
  0
SOLID
  8
Layer220$C$L220
 10
2.4897518686
 20
0.5318341317
 11
2.4897518686
 21
0.5774852671
 12
2.3749999908
 22
0.5546596994
 13
2.3749999908
 23
0.5546596994
  0
LINE
  8
Layer220$C$L220
 10
2.3749999908
 20
0.5546596994
 11
2.5749999908
 21
0.5546596994
  0
SOLID
  8
Layer220$C$L220
 10
1.7582481129
 20
0.5774852671
 11
1.7582481129
 21
0.5318341317
 12
1.8729999908
 22
0.5546596994
 13
1.8729999908
 23
0.5546596994
  0
LINE
  8
Layer220$C$L220
 10
1.8729999908
 20
0.5546596994
 11
1.4598223983
 21
0.5546596994
  0
LINE
  8
Layer220$C$L220
  6
GAP
 10
2.3749999908
 20
1.7149370521
 11
2.3749999908
 21
0.4796596964
  0
LINE
  8
Layer220$C$L220
  6
GAP
 10
1.8729999908
 20
1.1280850569
 11
1.8729999908
 21
0.4796596964
  0
TEXT
  8
Layer220$C$L220
 10
0.9679577675
 20
0.5076597010
 40
9.3999996781E-02
  1
  .50
 72
     5
 11
1.4128223999
 21
0.5076597010
  0
LINE
  8
Layer220$C$L220
 10
0.9679577675
 20
0.4371597083
 11
0.9335255678
 21
0.4371597083
  0
LINE
  8
Layer220$C$L220
 10
0.9335255678
 20
0.4371597083
 11
0.9335255678
 21
0.2491597154
  0
LINE
  8
Layer220$C$L220
 10
0.9335255678
 20
0.2491597154
 11
0.9679577675
 21
0.2491597154
  0
LINE
  8
Layer220$C$L220
 10
1.5734529589
 20
0.4371597083
 11
1.6078851598
 21
0.4371597083
  0
TEXT
  8
Layer220$C$L220
 10
0.9679577675
 20
0.2961597106
 40
9.3999996781E-02
  1
12.8mm 
 72
     5
 11
1.6008223973
 21
0.2961597106
  0
LINE
  8
Layer220$C$L220
 10
1.6078851598
 20
0.4371597083
 11
1.6078851598
 21
0.2491597154
  0
LINE
  8
Layer220$C$L220
 10
1.6078851598
 20
0.2491597154
 11
1.5734529589
 21
0.2491597154
  0
ENDBLK
  8
Layer220$C$L220
  0
BLOCK
  8
Layer220$C$L220
  2
*D8
 70
     1
 10
0.0000000000
 20
0.0000000000
  0
SOLID
  8
Layer220$C$L220
 10
2.8852481129
 20
3.1141440340
 11
2.8852481129
 21
3.0684928986
 12
2.9999999908
 22
3.0913184663
 13
2.9999999908
 23
3.0913184663
  0
LINE
  8
Layer220$C$L220
 10
2.9999999908
 20
3.0913184663
 11
2.3958741159
 21
3.0913184663
  0
SOLID
  8
Layer220$C$L220
 10
3.3647518686
 20
3.0684928986
 11
3.3647518686
 21
3.1141440340
 12
3.2499999908
 22
3.0913184663
 13
3.2499999908
 23
3.0913184663
  0
LINE
  8
Layer220$C$L220
 10
3.2499999908
 20
3.0913184663
 11
3.4499999908
 21
3.0913184663
  0
LINE
  8
Layer220$C$L220
  6
GAP
 10
2.9999999908
 20
2.4149370551
 11
2.9999999908
 21
3.1663184693
  0
LINE
  8
Layer220$C$L220
  6
GAP
 10
3.2499999908
 20
2.4149370551
 11
3.2499999908
 21
3.1663184693
  0
TEXT
  8
Layer220$C$L220
 10
1.9980094839
 20
3.0443184679
 40
9.3999996781E-02
  1
 .25
 72
     5
 11
2.3488741175
 21
3.0443184679
  0
LINE
  8
Layer220$C$L220
 10
1.9980094839
 20
2.9738184752
 11
1.9635772841
 21
2.9738184752
  0
LINE
  8
Layer220$C$L220
 10
1.9635772841
 20
2.9738184752
 11
1.9635772841
 21
2.7858184822
  0
LINE
  8
Layer220$C$L220
 10
1.9635772841
 20
2.7858184822
 11
1.9980094839
 21
2.7858184822
  0
LINE
  8
Layer220$C$L220
 10
2.6035046752
 20
2.9738184752
 11
2.6379368761
 21
2.9738184752
  0
TEXT
  8
Layer220$C$L220
 10
1.9980094839
 20
2.8328184775
 40
9.3999996781E-02
  1
6.4 mm 
 72
     5
 11
2.6308741137
 21
2.8328184775
  0
LINE
  8
Layer220$C$L220
 10
2.6379368761
 20
2.9738184752
 11
2.6379368761
 21
2.7858184822
  0
LINE
  8
Layer220$C$L220
 10
2.6379368761
 20
2.7858184822
 11
2.6035046752
 21
2.7858184822
  0
ENDBLK
  8
Layer220$C$L220
  0
BLOCK
  8
Layer220$C$L220
  2
*D9
 70
     1
 10
0.0000000000
 20
0.0000000000
  0
SOLID
  8
Layer220$C$L220
 10
2.4897518829
 20
0.5318341317
 11
2.4897518829
 21
0.5774852671
 12
2.3750000050
 22
0.5546596994
 13
2.3750000050
 23
0.5546596994
  0
LINE
  8
Layer220$C$L220
 10
2.3750000050
 20
0.5546596994
 11
2.7493476919
 21
0.5546596994
  0
SOLID
  8
Layer220$C$L220
 10
3.7602481272
 20
0.5774852671
 11
3.7602481272
 21
0.5318341317
 12
3.8750000050
 22
0.5546596994
 13
3.8750000050
 23
0.5546596994
  0
LINE
  8
Layer220$C$L220
 10
3.8750000050
 20
0.5546596994
 11
3.5006523182
 21
0.5546596994
  0
LINE
  8
Layer220$C$L220
  6
GAP
 10
2.3750000050
 20
1.7149370664
 11
2.3750000050
 21
0.4796596964
  0
LINE
  8
Layer220$C$L220
  6
GAP
 10
3.8750000050
 20
1.7149370664
 11
3.8750000050
 21
0.4796596964
  0
LINE
  8
Layer220$C$L220
 10
2.8840254718
 20
0.6253479983
 11
2.8026366587
 21
0.4841220416
  0
POLYLINE
  8
Layer220$C$L220
 10
0.0000000000
 20
0.0000000000
 30
0.0000000000
 66
     1
 70
     0
  0
VERTEX
  8
Layer220$C$L220
 10
2.8869676792
 20
0.5726824853
  0
VERTEX
  8
Layer220$C$L220
 10
2.8613704745
 20
0.5982796899
  0
VERTEX
  8
Layer220$C$L220
 10
2.8253284335
 20
0.5982796899
  0
VERTEX
  8
Layer220$C$L220
 10
2.7999335056
 20
0.5726824853
  0
VERTEX
  8
Layer220$C$L220
 10
2.7999335056
 20
0.5366404442
  0
SEQEND
  8
Layer220$C$L220
  0
POLYLINE
  8
Layer220$C$L220
 10
0.0000000000
 20
0.0000000000
 30
0.0000000000
 66
     1
 70
     0
  0
VERTEX
  8
Layer220$C$L220
 10
2.7999335056
 20
0.5366404442
  0
VERTEX
  8
Layer220$C$L220
 10
2.8253284335
 20
0.5112455163
  0
VERTEX
  8
Layer220$C$L220
 10
2.8613704745
 20
0.5112455163
  0
VERTEX
  8
Layer220$C$L220
 10
2.8869676792
 20
0.5366404442
  0
VERTEX
  8
Layer220$C$L220
 10
2.8869676792
 20
0.5726824853
  0
SEQEND
  8
Layer220$C$L220
  0
LINE
  8
Layer220$C$L220
 10
3.1229418007
 20
0.5076597010
 11
3.1498629987
 21
0.5076597010
  0
POLYLINE
  8
Layer220$C$L220
 10
0.0000000000
 20
0.0000000000
 30
0.0000000000
 66
     1
 70
     0
  0
VERTEX
  8
Layer220$C$L220
 10
3.1229418007
 20
0.5888646261
  0
VERTEX
  8
Layer220$C$L220
 10
3.1363288445
 20
0.6018103388
  0
VERTEX
  8
Layer220$C$L220
 10
3.1363288445
 20
0.5076597010
  0
SEQEND
  8
Layer220$C$L220
  0
POLYLINE
  8
Layer220$C$L220
 10
0.0000000000
 20
0.0000000000
 30
0.0000000000
 66
     1
 70
     1
  0
VERTEX
  8
Layer220$C$L220
 10
3.2237088746
 20
0.5076597010
  0
VERTEX
  8
Layer220$C$L220
 10
3.2303288413
 20
0.5076597010
  0
VERTEX
  8
Layer220$C$L220
 10
3.2303288413
 20
0.5139118918
  0
VERTEX
  8
Layer220$C$L220
 10
3.2237088746
 20
0.5139118918
  0
VERTEX
  8
Layer220$C$L220
 10
3.2237088746
 20
0.5076597010
  0
SEQEND
  8
Layer220$C$L220
  0
POLYLINE
  8
Layer220$C$L220
 10
0.0000000000
 20
0.0000000000
 30
0.0000000000
 66
     1
 70
     0
  0
VERTEX
  8
Layer220$C$L220
 10
3.3578700028
 20
0.5514985918
  0
VERTEX
  8
Layer220$C$L220
 10
3.3578700028
 20
0.5201640826
  0
VERTEX
  8
Layer220$C$L220
 10
3.3446300694
 20
0.5076594620
  0
VERTEX
  8
Layer220$C$L220
 10
3.3042482724
 20
0.5076594620
  0
VERTEX
  8
Layer220$C$L220
 10
3.2907867171
 20
0.5201640826
  0
SEQEND
  8
Layer220$C$L220
  0
POLYLINE
  8
Layer220$C$L220
 10
0.0000000000
 20
0.0000000000
 30
0.0000000000
 66
     1
 70
     0
  0
VERTEX
  8
Layer220$C$L220
 10
3.3578700028
 20
0.6018103388
  0
VERTEX
  8
Layer220$C$L220
 10
3.2907867171
 20
0.6018103388
  0
VERTEX
  8
Layer220$C$L220
 10
3.2907867171
 20
0.5641500837
  0
VERTEX
  8
Layer220$C$L220
 10
3.3446300694
 20
0.5641500837
  0
VERTEX
  8
Layer220$C$L220
 10
3.3578700028
 20
0.5514985918
  0
SEQEND
  8
Layer220$C$L220
  0
POLYLINE
  8
Layer220$C$L220
 10
0.0000000000
 20
0.0000000000
 30
0.0000000000
 66
     1
 70
     0
  0
VERTEX
  8
Layer220$C$L220
 10
3.4518699996
 20
0.5765073549
  0
VERTEX
  8
Layer220$C$L220
 10
3.4518699996
 20
0.5326684642
  0
VERTEX
  8
Layer220$C$L220
 10
3.4318629891
 20
0.5076597010
  0
VERTEX
  8
Layer220$C$L220
 10
3.4049417911
 20
0.5076597010
  0
VERTEX
  8
Layer220$C$L220
 10
3.3847876702
 20
0.5326684642
  0
SEQEND
  8
Layer220$C$L220
  0
POLYLINE
  8
Layer220$C$L220
 10
0.0000000000
 20
0.0000000000
 30
0.0000000000
 66
     1
 70
     0
  0
VERTEX
  8
Layer220$C$L220
 10
3.3847876702
 20
0.5326684642
  0
VERTEX
  8
Layer220$C$L220
 10
3.3847876702
 20
0.5765073549
  0
VERTEX
  8
Layer220$C$L220
 10
3.4049417911
 20
0.6018103388
  0
VERTEX
  8
Layer220$C$L220
 10
3.4318629891
 20
0.6018103388
  0
VERTEX
  8
Layer220$C$L220
 10
3.4518699996
 20
0.5765073549
  0
SEQEND
  8
Layer220$C$L220
  0
LINE
  8
Layer220$C$L220
 10
3.1489076903
 20
0.2976597053
 11
3.1144754905
 21
0.2976597053
  0
LINE
  8
Layer220$C$L220
 10
3.1144754905
 20
0.2976597053
 11
3.1144754905
 21
0.1096597124
  0
LINE
  8
Layer220$C$L220
 10
3.1144754905
 20
0.1096597124
 11
3.1489076903
 21
0.1096597124
  0
LINE
  8
Layer220$C$L220
 10
3.0626300790
 20
0.3461772410
 11
3.0758700125
 21
0.3338199698
  0
POLYLINE
  8
Layer220$C$L220
 10
0.0000000000
 20
0.0000000000
 30
0.0000000000
 66
     1
 70
     0
  0
VERTEX
  8
Layer220$C$L220
 10
3.0357088810
 20
0.3461772410
  0
VERTEX
  8
Layer220$C$L220
 10
3.0626300790
 20
0.3461772410
  0
VERTEX
  8
Layer220$C$L220
 10
3.0758700125
 20
0.3588287330
  0
SEQEND
  8
Layer220$C$L220
  0
POLYLINE
  8
Layer220$C$L220
 10
0.0000000000
 20
0.0000000000
 30
0.0000000000
 66
     1
 70
     0
  0
VERTEX
  8
Layer220$C$L220
 10
3.0758700125
 20
0.3338199698
  0
VERTEX
  8
Layer220$C$L220
 10
3.0758700125
 20
0.3086640963
  0
VERTEX
  8
Layer220$C$L220
 10
3.0626300790
 20
0.2961595952
  0
VERTEX
  8
Layer220$C$L220
 10
3.0155179825
 20
0.2961595952
  0
VERTEX
  8
Layer220$C$L220
 10
3.0087857705
 20
0.3024119055
  0
SEQEND
  8
Layer220$C$L220
  0
POLYLINE
  8
Layer220$C$L220
 10
0.0000000000
 20
0.0000000000
 30
0.0000000000
 66
     1
 70
     0
  0
VERTEX
  8
Layer220$C$L220
 10
3.0155179825
 20
0.3838374962
  0
VERTEX
  8
Layer220$C$L220
 10
3.0222482820
 20
0.3903103525
  0
VERTEX
  8
Layer220$C$L220
 10
3.0626300790
 20
0.3903103525
  0
VERTEX
  8
Layer220$C$L220
 10
3.0758700125
 20
0.3773646398
  0
VERTEX
  8
Layer220$C$L220
 10
3.0758700125
 20
0.3588287330
  0
SEQEND
  8
Layer220$C$L220
  0
POLYLINE
  8
Layer220$C$L220
 10
0.0000000000
 20
0.0000000000
 30
0.0000000000
 66
     1
 70
     0
  0
VERTEX
  8
Layer220$C$L220
 10
3.1566300758
 20
0.2961594756
  0
VERTEX
  8
Layer220$C$L220
 10
3.1698700092
 20
0.3086640963
  0
VERTEX
  8
Layer220$C$L220
 10
3.1698700092
 20
0.3338199698
  0
VERTEX
  8
Layer220$C$L220
 10
3.1566300758
 20
0.3461772410
  0
SEQEND
  8
Layer220$C$L220
  0
POLYLINE
  8
Layer220$C$L220
 10
0.0000000000
 20
0.0000000000
 30
0.0000000000
 66
     1
 70
     0
  0
VERTEX
  8
Layer220$C$L220
 10
3.1162482788
 20
0.3461772410
  0
VERTEX
  8
Layer220$C$L220
 10
3.1027857673
 20
0.3338199698
  0
VERTEX
  8
Layer220$C$L220
 10
3.1027857673
 20
0.3086640963
  0
VERTEX
  8
Layer220$C$L220
 10
3.1162482788
 20
0.2961594756
  0
VERTEX
  8
Layer220$C$L220
 10
3.1566300758
 20
0.2961594756
  0
SEQEND
  8
Layer220$C$L220
  0
POLYLINE
  8
Layer220$C$L220
 10
0.0000000000
 20
0.0000000000
 30
0.0000000000
 66
     1
 70
     0
  0
VERTEX
  8
Layer220$C$L220
 10
3.1566300758
 20
0.3903103525
  0
VERTEX
  8
Layer220$C$L220
 10
3.1698700092
 20
0.3773646398
  0
VERTEX
  8
Layer220$C$L220
 10
3.1698700092
 20
0.3588287330
  0
VERTEX
  8
Layer220$C$L220
 10
3.1566300758
 20
0.3461772410
  0
VERTEX
  8
Layer220$C$L220
 10
3.1162482788
 20
0.3461772410
  0
SEQEND
  8
Layer220$C$L220
  0
POLYLINE
  8
Layer220$C$L220
 10
0.0000000000
 20
0.0000000000
 30
0.0000000000
 66
     1
 70
     0
  0
VERTEX
  8
Layer220$C$L220
 10
3.1162482788
 20
0.3461772410
  0
VERTEX
  8
Layer220$C$L220
 10
3.1027857673
 20
0.3588287330
  0
VERTEX
  8
Layer220$C$L220
 10
3.1027857673
 20
0.3773646398
  0
VERTEX
  8
Layer220$C$L220
 10
3.1162482788
 20
0.3903103525
  0
VERTEX
  8
Layer220$C$L220
 10
3.1566300758
 20
0.3903103525
  0
SEQEND
  8
Layer220$C$L220
  0
POLYLINE
  8
Layer220$C$L220
 10
0.0000000000
 20
0.0000000000
 30
0.0000000000
 66
     1
 70
     1
  0
VERTEX
  8
Layer220$C$L220
 10
3.2237088746
 20
0.2961597147
  0
VERTEX
  8
Layer220$C$L220
 10
3.2303288413
 20
0.2961597147
  0
VERTEX
  8
Layer220$C$L220
 10
3.2303288413
 20
0.3024119055
  0
VERTEX
  8
Layer220$C$L220
 10
3.2237088746
 20
0.3024119055
  0
VERTEX
  8
Layer220$C$L220
 10
3.2237088746
 20
0.2961597147
  0
SEQEND
  8
Layer220$C$L220
  0
LINE
  8
Layer220$C$L220
 10
3.3109417943
 20
0.2961597147
 11
3.3378629923
 21
0.2961597147
  0
POLYLINE
  8
Layer220$C$L220
 10
0.0000000000
 20
0.0000000000
 30
0.0000000000
 66
     1
 70
     0
  0
VERTEX
  8
Layer220$C$L220
 10
3.3109417943
 20
0.3773646398
  0
VERTEX
  8
Layer220$C$L220
 10
3.3243288381
 20
0.3903103525
  0
VERTEX
  8
Layer220$C$L220
 10
3.3243288381
 20
0.2961597147
  0
SEQEND
  8
Layer220$C$L220
  0
LINE
  8
Layer220$C$L220
 10
3.4787876669
 20
0.2961597147
 11
3.4787876669
 21
0.3588287330
  0
POLYLINE
  8
Layer220$C$L220
 10
0.0000000000
 20
0.0000000000
 30
0.0000000000
 66
     1
 70
     0
  0
VERTEX
  8
Layer220$C$L220
 10
3.5123288317
 20
0.2961597147
  0
VERTEX
  8
Layer220$C$L220
 10
3.5123288317
 20
0.3461772410
  0
VERTEX
  8
Layer220$C$L220
 10
3.4989417878
 20
0.3588287330
  0
VERTEX
  8
Layer220$C$L220
 10
3.4922482659
 20
0.3588287330
  0
VERTEX
  8
Layer220$C$L220
 10
3.4787876669
 20
0.3461772410
  0
SEQEND
  8
Layer220$C$L220
  0
POLYLINE
  8
Layer220$C$L220
 10
0.0000000000
 20
0.0000000000
 30
0.0000000000
 66
     1
 70
     0
  0
VERTEX
  8
Layer220$C$L220
 10
3.5458699964
 20
0.2961597147
  0
VERTEX
  8
Layer220$C$L220
 10
3.5458699964
 20
0.3461772410
  0
VERTEX
  8
Layer220$C$L220
 10
3.5326300629
 20
0.3588287330
  0
VERTEX
  8
Layer220$C$L220
 10
3.5258629858
 20
0.3588287330
  0
VERTEX
  8
Layer220$C$L220
 10
3.5123288317
 20
0.3461772410
  0
SEQEND
  8
Layer220$C$L220
  0
LINE
  8
Layer220$C$L220
 10
3.5727876637
 20
0.2961597147
 11
3.5727876637
 21
0.3588287330
  0
POLYLINE
  8
Layer220$C$L220
 10
0.0000000000
 20
0.0000000000
 30
0.0000000000
 66
     1
 70
     0
  0
VERTEX
  8
Layer220$C$L220
 10
3.6063288284
 20
0.2961597147
  0
VERTEX
  8
Layer220$C$L220
 10
3.6063288284
 20
0.3461772410
  0
VERTEX
  8
Layer220$C$L220
 10
3.5929417846
 20
0.3588287330
  0
VERTEX
  8
Layer220$C$L220
 10
3.5862482627
 20
0.3588287330
  0
VERTEX
  8
Layer220$C$L220
 10
3.5727876637
 20
0.3461772410
  0
SEQEND
  8
Layer220$C$L220
  0
POLYLINE
  8
Layer220$C$L220
 10
0.0000000000
 20
0.0000000000
 30
0.0000000000
 66
     1
 70
     0
  0
VERTEX
  8
Layer220$C$L220
 10
3.6398699931
 20
0.2961597147
  0
VERTEX
  8
Layer220$C$L220
 10
3.6398699931
 20
0.3461772410
  0
VERTEX
  8
Layer220$C$L220
 10
3.6266300597
 20
0.3588287330
  0
VERTEX
  8
Layer220$C$L220
 10
3.6198629826
 20
0.3588287330
  0
VERTEX
  8
Layer220$C$L220
 10
3.6063288284
 20
0.3461772410
  0
SEQEND
  8
Layer220$C$L220
  0
LINE
  8
Layer220$C$L220
 10
4.3444029042
 20
0.2976597053
 11
4.3788351051
 21
0.2976597053
  0
LINE
  8
Layer220$C$L220
 10
4.3788351051
 20
0.2976597053
 11
4.3788351051
 21
0.1096597124
  0
LINE
  8
Layer220$C$L220
 10
4.3788351051
 20
0.1096597124
 11
4.3444029042
 21
0.1096597124
  0
ENDBLK
  8
Layer220$C$L220
  0
BLOCK
  8
Layer0$C$L0
  2
*X0
 70
     1
 10
0.0000000000
 20
0.0000000000
  0
LINE
  8
Layer0$C$L0
 10
4.877482
 20
-1.554191E-03
 11
4.889668
 21
1.063160E-02
  0
LINE
  8
Layer0$C$L0
 10
4.886739
 20
2.891550E-02
 11
4.853525
 21
-4.298434E-03
  0
LINE
  8
Layer0$C$L0
 10
4.830322
 20
-6.287912E-03
 11
4.883810
 21
4.719939E-02
  0
LINE
  8
Layer0$C$L0
 10
4.880880
 20
6.548329E-02
 11
4.807885
 21
-7.512460E-03
  0
LINE
  8
Layer0$C$L0
 10
4.786201
 20
-7.983072E-03
 11
4.862841
 21
6.865681E-02
  0
LINE
  8
Layer0$C$L0
 10
4.838506
 20
6.553490E-02
 11
4.765243
 21
-7.727982E-03
  0
LINE
  8
Layer0$C$L0
 10
4.745091
 20
-6.666402E-03
 11
4.818429
 21
6.667171E-02
  0
LINE
  8
Layer0$C$L0
 10
4.804770
 20
7.422546E-02
 11
4.725945
 21
-4.599073E-03
  0
LINE
  8
Layer0$C$L0
 10
4.708183
 20
-1.148099E-03
 11
4.800126
 21
9.079488E-02
  0
LINE
  8
Layer0$C$L0
 10
4.799984
 20
0.111866
 11
4.692246
 21
4.128182E-03
  0
LINE
  8
Layer0$C$L0
 10
4.885571
 20
0.197453
 11
4.881079
 21
0.192961
  0
LINE
  8
Layer0$C$L0
 10
4.799984
 20
0.133079
 11
4.678338
 21
1.143258E-02
  0
LINE
  8
Layer0$C$L0
 10
4.885571
 20
0.218666
 11
4.859866
 21
0.192961
  0
LINE
  8
Layer0$C$L0
 10
4.799984
 20
0.154292
 11
4.666494
 21
2.080268E-02
  0
LINE
  8
Layer0$C$L0
 10
4.885571
 20
0.239879
 11
4.838653
 21
0.192961
  0
LINE
  8
Layer0$C$L0
 10
4.799984
 20
0.175506
 11
4.656990
 21
3.251142E-02
  0
LINE
  8
Layer0$C$L0
 10
4.885571
 20
0.261093
 11
4.817440
 21
0.192961
  0
LINE
  8
Layer0$C$L0
 10
4.871875
 20
0.268610
 11
4.650315
 21
4.704990E-02
  0
LINE
  8
Layer0$C$L0
 10
4.850662
 20
0.268610
 11
4.646334
 21
6.428210E-02
  0
LINE
  8
Layer0$C$L0
 10
4.829449
 20
0.268610
 11
4.644312
 21
8.347376E-02
  0
LINE
  8
Layer0$C$L0
 10
4.808236
 20
0.268610
 11
4.644067
 21
0.104441
  0
LINE
  8
Layer0$C$L0
 10
4.517905
 20
-5.070965E-04
 11
4.516507
 21
-1.904964E-03
  0
LINE
  8
Layer0$C$L0
 10
4.799984
 20
0.281572
 11
4.644067
 21
0.125654
  0
LINE
  8
Layer0$C$L0
 10
4.517905
 20
2.070611E-02
 11
4.495294
 21
-1.904964E-03
  0
LINE
  8
Layer0$C$L0
 10
4.799984
 20
0.302785
 11
4.644067
 21
0.146868
  0
LINE
  8
Layer0$C$L0
 10
4.517905
 20
4.191931E-02
 11
4.474081
 21
-1.904964E-03
  0
LINE
  8
Layer0$C$L0
 10
4.799984
 20
0.323998
 11
4.644067
 21
0.168081
  0
LINE
  8
Layer0$C$L0
 10
4.517905
 20
6.313252E-02
 11
4.452868
 21
-1.904964E-03
  0
LINE
  8
Layer0$C$L0
 10
4.799984
 20
0.345211
 11
4.644067
 21
0.189294
  0
LINE
  8
Layer0$C$L0
 10
4.517905
 20
8.434572E-02
 11
4.431654
 21
-1.904964E-03
  0
LINE
  8
Layer0$C$L0
 10
4.799984
 20
0.366424
 11
4.626521
 21
0.192961
  0
LINE
  8
Layer0$C$L0
 10
4.517905
 20
0.105559
 11
4.410441
 21
-1.904964E-03
  0
LINE
  8
Layer0$C$L0
 10
4.775586
 20
0.363240
 11
4.605307
 21
0.192961
  0
LINE
  8
Layer0$C$L0
 10
4.517905
 20
0.126772
 11
4.389228
 21
-1.904964E-03
  0
LINE
  8
Layer0$C$L0
 10
4.743381
 20
0.352248
 11
4.586657
 21
0.195524
  0
LINE
  8
Layer0$C$L0
 10
4.517905
 20
0.147985
 11
4.372555
 21
2.634871E-03
  0
LINE
  8
Layer0$C$L0
 10
4.638530
 20
0.268610
 11
4.586657
 21
0.216737
  0
LINE
  8
Layer0$C$L0
 10
4.711176
 20
0.341256
 11
4.644067
 21
0.274147
  0
LINE
  8
Layer0$C$L0
 10
4.517905
 20
0.169199
 11
4.372555
 21
2.384808E-02
  0
LINE
  8
Layer0$C$L0
 10
4.617317
 20
0.268610
 11
4.586657
 21
0.237950
  0
LINE
  8
Layer0$C$L0
 10
4.678971
 20
0.330264
 11
4.644067
 21
0.295360
  0
LINE
  8
Layer0$C$L0
 10
4.517905
 20
0.190412
 11
4.358288
 21
3.079451E-02
  0
LINE
  8
Layer0$C$L0
 10
4.596104
 20
0.268610
 11
4.586657
 21
0.259164
  0
LINE
  8
Layer0$C$L0
 10
4.646766
 20
0.319272
 11
4.644067
 21
0.316573
  0
LINE
  8
Layer0$C$L0
 10
4.517905
 20
0.211625
 11
4.311284
 21
5.003541E-03
  0
LINE
  8
Layer0$C$L0
 10
4.517905
 20
0.232838
 11
4.281897
 21
-3.170433E-03
  0
LINE
  8
Layer0$C$L0
 10
4.517905
 20
0.254051
 11
4.257231
 21
-6.623076E-03
  0
LINE
  8
Layer0$C$L0
 10
4.317414
 20
7.477361E-02
 11
4.234738
 21
-7.902125E-03
  0
LINE
  8
Layer0$C$L0
 10
4.511250
 20
0.268610
 11
4.360613
 21
0.117973
  0
LINE
  8
Layer0$C$L0
 10
4.294462
 20
7.303433E-02
 11
4.213686
 21
-7.741352E-03
  0
LINE
  8
Layer0$C$L0
 10
4.490037
 20
0.268610
 11
4.362252
 21
0.140825
  0
LINE
  8
Layer0$C$L0
 10
4.275916
 20
7.570126E-02
 11
4.193987
 21
-6.227551E-03
  0
LINE
  8
Layer0$C$L0
 10
4.468824
 20
0.268610
 11
4.362252
 21
0.162038
  0
LINE
  8
Layer0$C$L0
 10
4.261143
 20
8.214171E-02
 11
4.175734
 21
-3.267384E-03
  0
LINE
  8
Layer0$C$L0
 10
4.447611
 20
0.268610
 11
4.362252
 21
0.183251
  0
LINE
  8
Layer0$C$L0
 10
4.250848
 20
9.306020E-02
 11
4.158939
 21
1.151254E-03
  0
LINE
  8
Layer0$C$L0
 10
4.426398
 20
0.268610
 11
4.362252
 21
0.204464
  0
LINE
  8
Layer0$C$L0
 10
4.245618
 20
0.109044
 11
4.143588
 21
7.013573E-03
  0
LINE
  8
Layer0$C$L0
 10
4.405185
 20
0.268610
 11
4.362252
 21
0.225678
  0
LINE
  8
Layer0$C$L0
 10
4.244953
 20
0.129592
 11
4.129766
 21
1.440426E-02
  0
LINE
  8
Layer0$C$L0
 10
4.383972
 20
0.268610
 11
4.362252
 21
0.246891
  0
LINE
  8
Layer0$C$L0
 10
4.244953
 20
0.150805
 11
4.117622
 21
2.347392E-02
  0
LINE
  8
Layer0$C$L0
 10
4.362758
 20
0.268610
 11
4.362252
 21
0.268104
  0
LINE
  8
Layer0$C$L0
 10
4.244953
 20
0.172018
 11
4.107303
 21
3.436779E-02
  0
LINE
  8
Layer0$C$L0
 10
4.244953
 20
0.193231
 11
4.099097
 21
4.737508E-02
  0
LINE
  8
Layer0$C$L0
 10
4.244953
 20
0.214445
 11
4.093106
 21
6.259754E-02
  0
LINE
  8
Layer0$C$L0
 10
4.244953
 20
0.235658
 11
4.089411
 21
8.011533E-02
  0
LINE
  8
Layer0$C$L0
 10
3.997189
 20
9.106799E-03
 11
3.986177
 21
-1.904964E-03
  0
LINE
  8
Layer0$C$L0
 10
4.244953
 20
0.256871
 11
4.088646
 21
0.100564
  0
LINE
  8
Layer0$C$L0
 10
3.997189
 20
3.032000E-02
 11
3.964964
 21
-1.904964E-03
  0
LINE
  8
Layer0$C$L0
 10
4.235479
 20
0.268610
 11
4.088646
 21
0.121777
  0
LINE
  8
Layer0$C$L0
 10
3.997189
 20
5.153321E-02
 11
3.943751
 21
-1.904964E-03
  0
LINE
  8
Layer0$C$L0
 10
4.214266
 20
0.268610
 11
4.088646
 21
0.142990
  0
LINE
  8
Layer0$C$L0
 10
3.997189
 20
7.274641E-02
 11
3.922538
 21
-1.904964E-03
  0
LINE
  8
Layer0$C$L0
 10
4.193053
 20
0.268610
 11
4.088646
 21
0.164203
  0
LINE
  8
Layer0$C$L0
 10
3.997189
 20
9.395961E-02
 11
3.901325
 21
-1.904964E-03
  0
LINE
  8
Layer0$C$L0
 10
4.171839
 20
0.268610
 11
4.088646
 21
0.185417
  0
LINE
  8
Layer0$C$L0
 10
3.997189
 20
0.115173
 11
3.880111
 21
-1.904964E-03
  0
LINE
  8
Layer0$C$L0
 10
4.150626
 20
0.268610
 11
4.088646
 21
0.206630
  0
LINE
  8
Layer0$C$L0
 10
3.997189
 20
0.136386
 11
3.858898
 21
-1.904964E-03
  0
LINE
  8
Layer0$C$L0
 10
4.129413
 20
0.268610
 11
4.088646
 21
0.227843
  0
LINE
  8
Layer0$C$L0
 10
3.997189
 20
0.157599
 11
3.841272
 21
1.682055E-03
  0
LINE
  8
Layer0$C$L0
 10
4.108200
 20
0.268610
 11
4.088646
 21
0.249056
  0
LINE
  8
Layer0$C$L0
 10
3.997021
 20
0.178645
 11
3.841272
 21
2.289526E-02
  0
LINE
  8
Layer0$C$L0
 10
3.994254
 20
0.197091
 11
3.841272
 21
4.410846E-02
  0
LINE
  8
Layer0$C$L0
 10
3.989119
 20
0.213169
 11
3.841272
 21
6.532167E-02
  0
LINE
  8
Layer0$C$L0
 10
3.981820
 20
0.227083
 11
3.841272
 21
8.653487E-02
  0
LINE
  8
Layer0$C$L0
 10
3.972314
 20
0.238791
 11
3.841272
 21
0.107748
  0
LINE
  8
Layer0$C$L0
 10
3.730500
 20
1.818938E-02
 11
3.710406
 21
-1.904964E-03
  0
LINE
  8
Layer0$C$L0
 10
3.960901
 20
0.248590
 11
3.841272
 21
0.128961
  0
LINE
  8
Layer0$C$L0
 10
3.730500
 20
3.940259E-02
 11
3.689193
 21
-1.904964E-03
  0
LINE
  8
Layer0$C$L0
 10
3.947785
 20
0.256688
 11
3.841272
 21
0.150174
  0
LINE
  8
Layer0$C$L0
 10
3.730500
 20
6.061579E-02
 11
3.667979
 21
-1.904964E-03
  0
LINE
  8
Layer0$C$L0
 10
3.933095
 20
0.263211
 11
3.838470
 21
0.168586
  0
LINE
  8
Layer0$C$L0
 10
3.730500
 20
8.182899E-02
 11
3.646766
 21
-1.904964E-03
  0
LINE
  8
Layer0$C$L0
 10
3.916925
 20
0.268254
 11
3.829282
 21
0.180611
  0
LINE
  8
Layer0$C$L0
 10
3.730500
 20
0.103042
 11
3.625553
 21
-1.904964E-03
  0
LINE
  8
Layer0$C$L0
 10
3.899303
 20
0.271845
 11
3.816163
 21
0.188705
  0
LINE
  8
Layer0$C$L0
 10
3.730500
 20
0.124255
 11
3.604340
 21
-1.904964E-03
  0
LINE
  8
Layer0$C$L0
 10
3.880244
 20
0.274000
 11
3.799294
 21
0.193049
  0
LINE
  8
Layer0$C$L0
 10
3.730724
 20
0.145693
 11
3.583126
 21
-1.904964E-03
  0
LINE
  8
Layer0$C$L0
 10
3.859807
 20
0.274776
 11
3.777565
 21
0.192533
  0
LINE
  8
Layer0$C$L0
 10
3.838057
 20
0.274238
 11
3.574453
 21
1.063470E-02
  0
LINE
  8
Layer0$C$L0
 10
3.814564
 20
0.271959
 11
3.574453
 21
3.184790E-02
  0
LINE
  8
Layer0$C$L0
 10
3.787749
 20
0.266357
 11
3.574453
 21
5.306111E-02
  0
LINE
  8
Layer0$C$L0
 10
3.750980
 20
0.250801
 11
3.574453
 21
7.427431E-02
  0
LINE
  8
Layer0$C$L0
 10
3.712966
 20
0.234001
 11
3.574453
 21
9.548751E-02
  0
LINE
  8
Layer0$C$L0
 10
3.464335
 20
6.582805E-03
 11
3.455847
 21
-1.904964E-03
  0
LINE
  8
Layer0$C$L0
 10
3.702233
 20
0.244480
 11
3.574453
 21
0.116701
  0
LINE
  8
Layer0$C$L0
 10
3.464335
 20
2.779601E-02
 11
3.434634
 21
-1.904964E-03
  0
LINE
  8
Layer0$C$L0
 10
3.690003
 20
0.253464
 11
3.574453
 21
0.137914
  0
LINE
  8
Layer0$C$L0
 10
3.464335
 20
4.900921E-02
 11
3.413421
 21
-1.904964E-03
  0
LINE
  8
Layer0$C$L0
 10
3.676264
 20
0.260938
 11
3.574035
 21
0.158709
  0
LINE
  8
Layer0$C$L0
 10
3.464335
 20
7.022242E-02
 11
3.392208
 21
-1.904964E-03
  0
LINE
  8
Layer0$C$L0
 10
3.660873
 20
0.266760
 11
3.569251
 21
0.175138
  0
LINE
  8
Layer0$C$L0
 10
3.464335
 20
9.143562E-02
 11
3.370994
 21
-1.904964E-03
  0
LINE
  8
Layer0$C$L0
 10
3.643776
 20
0.270876
 11
3.558313
 21
0.185413
  0
LINE
  8
Layer0$C$L0
 10
3.464335
 20
0.112649
 11
3.349781
 21
-1.904964E-03
  0
LINE
  8
Layer0$C$L0
 10
3.625102
 20
0.273416
 11
3.543499
 21
0.191812
  0
LINE
  8
Layer0$C$L0
 10
3.464335
 20
0.133862
 11
3.328568
 21
-1.904964E-03
  0
LINE
  8
Layer0$C$L0
 10
3.605102
 20
0.274629
 11
3.524476
 21
0.194003
  0
LINE
  8
Layer0$C$L0
 10
3.467026
 20
0.157766
 11
3.308421
 21
-8.388394E-04
  0
LINE
  8
Layer0$C$L0
 10
3.583906
 20
0.274647
 11
3.499248
 21
0.189988
  0
LINE
  8
Layer0$C$L0
 10
3.561294
 20
0.273248
 11
3.308421
 21
2.037436E-02
  0
LINE
  8
Layer0$C$L0
 10
3.536311
 20
0.269478
 11
3.308421
 21
4.158757E-02
  0
LINE
  8
Layer0$C$L0
 10
3.505919
 20
0.260299
 11
3.308421
 21
6.280077E-02
  0
LINE
  8
Layer0$C$L0
 10
3.453634
 20
0.229227
 11
3.308421
 21
8.401398E-02
  0
LINE
  8
Layer0$C$L0
 10
3.453634
 20
0.250440
 11
3.308421
 21
0.105227
  0
LINE
  8
Layer0$C$L0
 10
3.450591
 20
0.268610
 11
3.308421
 21
0.126440
  0
LINE
  8
Layer0$C$L0
 10
3.429377
 20
0.268610
 11
3.308421
 21
0.147654
  0
LINE
  8
Layer0$C$L0
 10
3.408164
 20
0.268610
 11
3.308421
 21
0.168867
  0
LINE
  8
Layer0$C$L0
 10
3.386951
 20
0.268610
 11
3.308421
 21
0.190080
  0
LINE
  8
Layer0$C$L0
 10
3.133156
 20
3.602849E-02
 11
3.095223
 21
-1.904964E-03
  0
LINE
  8
Layer0$C$L0
 10
3.365738
 20
0.268610
 11
3.308421
 21
0.211293
  0
LINE
  8
Layer0$C$L0
 10
3.159372
 20
8.345718E-02
 11
3.074009
 21
-1.904964E-03
  0
LINE
  8
Layer0$C$L0
 10
3.344524
 20
0.268610
 11
3.308421
 21
0.232506
  0
LINE
  8
Layer0$C$L0
 10
3.185587
 20
0.130886
 11
3.052796
 21
-1.904964E-03
  0
LINE
  8
Layer0$C$L0
 10
3.323311
 20
0.268610
 11
3.308421
 21
0.253720
  0
LINE
  8
Layer0$C$L0
 10
3.211803
 20
0.178315
 11
3.031583
 21
-1.904964E-03
  0
LINE
  8
Layer0$C$L0
 10
3.238018
 20
0.225743
 11
3.010370
 21
-1.904964E-03
  0
LINE
  8
Layer0$C$L0
 10
3.259672
 20
0.268610
 11
2.989157
 21
-1.904964E-03
  0
LINE
  8
Layer0$C$L0
 10
3.238458
 20
0.268610
 11
2.971892
 21
2.043703E-03
  0
LINE
  8
Layer0$C$L0
 10
3.046818
 20
9.818280E-02
 11
2.964775
 21
1.613944E-02
  0
LINE
  8
Layer0$C$L0
 10
3.217245
 20
0.268610
 11
3.046821
 21
9.818537E-02
  0
LINE
  8
Layer0$C$L0
 10
3.039726
 20
0.112304
 11
2.957657
 21
3.023519E-02
  0
LINE
  8
Layer0$C$L0
 10
3.196032
 20
0.268610
 11
3.060020
 21
0.132598
  0
LINE
  8
Layer0$C$L0
 10
3.032635
 20
0.126426
 11
2.950540
 21
4.433093E-02
  0
LINE
  8
Layer0$C$L0
 10
3.174819
 20
0.268610
 11
3.073219
 21
0.167010
  0
LINE
  8
Layer0$C$L0
 10
3.025543
 20
0.140547
 11
2.943422
 21
5.842667E-02
  0
LINE
  8
Layer0$C$L0
 10
3.153606
 20
0.268610
 11
3.086419
 21
0.201423
  0
LINE
  8
Layer0$C$L0
 10
3.018451
 20
0.154669
 11
2.936305
 21
7.252241E-02
  0
LINE
  8
Layer0$C$L0
 10
3.132392
 20
0.268610
 11
3.099618
 21
0.235836
  0
LINE
  8
Layer0$C$L0
 10
3.011360
 20
0.168791
 11
2.929187
 21
8.661815E-02
  0
LINE
  8
Layer0$C$L0
 10
3.004268
 20
0.182912
 11
2.922070
 21
0.100714
  0
LINE
  8
Layer0$C$L0
 10
2.825578
 20
2.543543E-02
 11
2.798238
 21
-1.904964E-03
  0
LINE
  8
Layer0$C$L0
 10
2.997177
 20
0.197034
 11
2.914953
 21
0.114810
  0
LINE
  8
Layer0$C$L0
 10
2.845809
 20
6.687976E-02
 11
2.777025
 21
-1.904964E-03
  0
LINE
  8
Layer0$C$L0
 10
2.990085
 20
0.211155
 11
2.907835
 21
0.128905
  0
LINE
  8
Layer0$C$L0
 10
2.866040
 20
0.108324
 11
2.755811
 21
-1.904964E-03
  0
LINE
  8
Layer0$C$L0
 10
2.982993
 20
0.225277
 11
2.900717
 21
0.143001
  0
LINE
  8
Layer0$C$L0
 10
2.886272
 20
0.149768
 11
2.734598
 21
-1.904964E-03
  0
LINE
  8
Layer0$C$L0
 10
2.975902
 20
0.239398
 11
2.893600
 21
0.157097
  0
LINE
  8
Layer0$C$L0
 10
2.968810
 20
0.253520
 11
2.713385
 21
-1.904964E-03
  0
LINE
  8
Layer0$C$L0
 10
2.961718
 20
0.267641
 11
2.692172
 21
-1.904964E-03
  0
LINE
  8
Layer0$C$L0
 10
2.941474
 20
0.268610
 11
2.672283
 21
-5.807794E-04
  0
LINE
  8
Layer0$C$L0
 10
2.920260
 20
0.268610
 11
2.664698
 21
1.304719E-02
  0
LINE
  8
Layer0$C$L0
 10
2.735678
 20
0.105241
 11
2.657112
 21
2.667516E-02
  0
LINE
  8
Layer0$C$L0
 10
2.899047
 20
0.268610
 11
2.747570
 21
0.117133
  0
LINE
  8
Layer0$C$L0
 10
2.729798
 20
0.120574
 11
2.649527
 21
4.030313E-02
  0
LINE
  8
Layer0$C$L0
 10
2.877834
 20
0.268610
 11
2.767516
 21
0.158292
  0
LINE
  8
Layer0$C$L0
 10
2.723917
 20
0.135906
 11
2.641942
 21
5.393109E-02
  0
LINE
  8
Layer0$C$L0
 10
2.856621
 20
0.268610
 11
2.787461
 21
0.199450
  0
LINE
  8
Layer0$C$L0
 10
2.718036
 20
0.151239
 11
2.634357
 21
6.755906E-02
  0
LINE
  8
Layer0$C$L0
 10
2.835408
 20
0.268610
 11
2.807407
 21
0.240609
  0
LINE
  8
Layer0$C$L0
 10
2.712156
 20
0.166571
 11
2.626771
 21
8.118702E-02
  0
LINE
  8
Layer0$C$L0
 10
2.706275
 20
0.181904
 11
2.619186
 21
9.481499E-02
  0
LINE
  8
Layer0$C$L0
 10
2.700394
 20
0.197236
 11
2.611601
 21
0.108443
  0
LINE
  8
Layer0$C$L0
 10
2.488582
 20
6.637473E-03
 11
2.480040
 21
-1.904964E-03
  0
LINE
  8
Layer0$C$L0
 10
2.694514
 20
0.212569
 11
2.604016
 21
0.122071
  0
LINE
  8
Layer0$C$L0
 10
2.480889
 20
2.015780E-02
 11
2.458827
 21
-1.904964E-03
  0
LINE
  8
Layer0$C$L0
 10
2.688633
 20
0.227902
 11
2.596431
 21
0.135699
  0
LINE
  8
Layer0$C$L0
 10
2.476180
 20
3.666124E-02
 11
2.437613
 21
-1.904964E-03
  0
LINE
  8
Layer0$C$L0
 10
2.682753
 20
0.243234
 11
2.588845
 21
0.149327
  0
LINE
  8
Layer0$C$L0
 10
2.474961
 20
5.665585E-02
 11
2.416400
 21
-1.904964E-03
  0
LINE
  8
Layer0$C$L0
 10
2.676872
 20
0.258567
 11
2.581260
 21
0.162955
  0
LINE
  8
Layer0$C$L0
 10
2.474961
 20
7.786906E-02
 11
2.395187
 21
-1.904964E-03
  0
LINE
  8
Layer0$C$L0
 10
2.665702
 20
0.268610
 11
2.573675
 21
0.176583
  0
LINE
  8
Layer0$C$L0
 10
2.474961
 20
9.908226E-02
 11
2.373974
 21
-1.904964E-03
  0
LINE
  8
Layer0$C$L0
 10
2.644489
 20
0.268610
 11
2.566090
 21
0.190211
  0
LINE
  8
Layer0$C$L0
 10
2.474961
 20
0.120295
 11
2.352761
 21
-1.904964E-03
  0
LINE
  8
Layer0$C$L0
 10
2.623276
 20
0.268610
 11
2.558504
 21
0.203839
  0
LINE
  8
Layer0$C$L0
 10
2.474961
 20
0.141509
 11
2.341056
 21
7.603255E-03
  0
LINE
  8
Layer0$C$L0
 10
2.602062
 20
0.268610
 11
2.550919
 21
0.217467
  0
LINE
  8
Layer0$C$L0
 10
2.474961
 20
0.162722
 11
2.334127
 21
2.188834E-02
  0
LINE
  8
Layer0$C$L0
 10
2.580849
 20
0.268610
 11
2.543334
 21
0.231095
  0
LINE
  8
Layer0$C$L0
 10
2.474423
 20
0.183397
 11
2.309371
 21
1.834554E-02
  0
LINE
  8
Layer0$C$L0
 10
2.559636
 20
0.268610
 11
2.535749
 21
0.244723
  0
LINE
  8
Layer0$C$L0
 10
2.470280
 20
0.200467
 11
2.273907
 21
4.094074E-03
  0
LINE
  8
Layer0$C$L0
 10
2.538423
 20
0.268610
 11
2.528163
 21
0.258351
  0
LINE
  8
Layer0$C$L0
 10
2.463715
 20
0.215115
 11
2.246341
 21
-2.258229E-03
  0
LINE
  8
Layer0$C$L0
 10
2.287645
 20
6.025879E-02
 11
2.221704
 21
-5.682634E-03
  0
LINE
  8
Layer0$C$L0
 10
2.455273
 20
0.227887
 11
2.320870
 21
9.348347E-02
  0
LINE
  8
Layer0$C$L0
 10
2.257690
 20
5.151713E-02
 11
2.198733
 21
-7.440345E-03
  0
LINE
  8
Layer0$C$L0
 10
2.444896
 20
0.238723
 11
2.322994
 21
0.116821
  0
LINE
  8
Layer0$C$L0
 10
2.234535
 20
4.957470E-02
 11
2.176969
 21
-7.990595E-03
  0
LINE
  8
Layer0$C$L0
 10
2.432499
 20
0.247540
 11
2.308084
 21
0.123124
  0
LINE
  8
Layer0$C$L0
 10
2.214694
 20
5.094712E-02
 11
2.156170
 21
-7.577075E-03
  0
LINE
  8
Layer0$C$L0
 10
2.418497
 20
0.254750
 11
2.281286
 21
0.117539
  0
LINE
  8
Layer0$C$L0
 10
2.198405
 20
5.587134E-02
 11
2.136378
 21
-6.155835E-03
  0
LINE
  8
Layer0$C$L0
 10
2.320669
 20
0.178136
 11
2.255377
 21
0.112843
  0
LINE
  8
Layer0$C$L0
 10
2.403146
 20
0.260613
 11
2.322865
 21
0.180332
  0
LINE
  8
Layer0$C$L0
 10
2.186731
 20
6.541029E-02
 11
2.117682
 21
-3.638454E-03
  0
LINE
  8
Layer0$C$L0
 10
2.292711
 20
0.171391
 11
2.228851
 21
0.107530
  0
LINE
  8
Layer0$C$L0
 10
2.386526
 20
0.265206
 11
2.318686
 21
0.197366
  0
LINE
  8
Layer0$C$L0
 10
2.184497
 20
8.439031E-02
 11
2.100223
 21
1.162239E-04
  0
LINE
  8
Layer0$C$L0
 10
2.266145
 20
0.166038
 11
2.197304
 21
9.719721E-02
  0
LINE
  8
Layer0$C$L0
 10
2.368665
 20
0.268558
 11
2.307539
 21
0.207432
  0
LINE
  8
Layer0$C$L0
 10
2.240910
 20
0.162016
 11
2.084132
 21
5.238494E-03
  0
LINE
  8
Layer0$C$L0
 10
2.349780
 20
0.270886
 11
2.290735
 21
0.211841
  0
LINE
  8
Layer0$C$L0
 10
2.216072
 20
0.158391
 11
2.069463
 21
1.178205E-02
  0
LINE
  8
Layer0$C$L0
 10
2.330147
 20
0.272466
 11
2.270805
 21
0.213124
  0
LINE
  8
Layer0$C$L0
 10
2.191476
 20
0.155008
 11
2.056265
 21
1.979748E-02
  0
LINE
  8
Layer0$C$L0
 10
2.310033
 20
0.273565
 11
2.248919
 21
0.212451
  0
LINE
  8
Layer0$C$L0
 10
2.166950
 20
0.151696
 11
2.044740
 21
2.948603E-02
  0
LINE
  8
Layer0$C$L0
 10
2.289548
 20
0.274294
 11
2.224107
 21
0.208853
  0
LINE
  8
Layer0$C$L0
 10
2.142162
 20
0.148121
 11
2.035265
 21
4.122386E-02
  0
LINE
  8
Layer0$C$L0
 10
2.268742
 20
0.274700
 11
2.175930
 21
0.181889
  0
LINE
  8
Layer0$C$L0
 10
2.116389
 20
0.143561
 11
2.028838
 21
5.600988E-02
  0
LINE
  8
Layer0$C$L0
 10
2.247606
 20
0.274778
 11
2.156108
 21
0.183280
  0
LINE
  8
Layer0$C$L0
 10
1.953205
 20
1.590154E-03
 11
1.949710
 21
-1.904964E-03
  0
LINE
  8
Layer0$C$L0
 10
2.087851
 20
0.136236
 11
2.027278
 21
7.566302E-02
  0
LINE
  8
Layer0$C$L0
 10
2.226074
 20
0.274459
 11
2.136287
 21
0.184672
  0
LINE
  8
Layer0$C$L0
 10
1.953205
 20
2.280336E-02
 11
1.928497
 21
-1.904964E-03
  0
LINE
  8
Layer0$C$L0
 10
2.203915
 20
0.273514
 11
2.116465
 21
0.186064
  0
LINE
  8
Layer0$C$L0
 10
1.953205
 20
4.401656E-02
 11
1.907283
 21
-1.904964E-03
  0
LINE
  8
Layer0$C$L0
 10
2.180969
 20
0.271781
 11
2.096644
 21
0.187455
  0
LINE
  8
Layer0$C$L0
 10
1.953205
 20
6.522977E-02
 11
1.886070
 21
-1.904964E-03
  0
LINE
  8
Layer0$C$L0
 10
2.157002
 20
0.269027
 11
2.076822
 21
0.188847
  0
LINE
  8
Layer0$C$L0
 10
1.953205
 20
8.644297E-02
 11
1.864857
 21
-1.904964E-03
  0
LINE
  8
Layer0$C$L0
 10
2.131268
 20
0.264506
 11
2.057000
 21
0.190238
  0
LINE
  8
Layer0$C$L0
 10
1.953205
 20
0.107656
 11
1.843644
 21
-1.904964E-03
  0
LINE
  8
Layer0$C$L0
 10
2.100227
 20
0.254678
 11
2.040437
 21
0.194888
  0
LINE
  8
Layer0$C$L0
 10
1.953205
 20
0.128869
 11
1.822430
 21
-1.904964E-03
  0
LINE
  8
Layer0$C$L0
 10
1.953205
 20
0.150083
 11
1.801217
 21
-1.904964E-03
  0
LINE
  8
Layer0$C$L0
 10
1.953231
 20
0.171322
 11
1.796894
 21
1.498498E-02
  0
LINE
  8
Layer0$C$L0
 10
1.951751
 20
0.191055
 11
1.796894
 21
3.619819E-02
  0
LINE
  8
Layer0$C$L0
 10
1.947440
 20
0.207958
 11
1.796894
 21
5.741139E-02
  0
LINE
  8
Layer0$C$L0
 10
1.940897
 20
0.222627
 11
1.796894
 21
7.862460E-02
  0
LINE
  8
Layer0$C$L0
 10
1.932145
 20
0.235089
 11
1.796894
 21
9.983780E-02
  0
LINE
  8
Layer0$C$L0
 10
1.679598
 20
3.754783E-03
 11
1.673938
 21
-1.904964E-03
  0
LINE
  8
Layer0$C$L0
 10
1.921379
 20
0.245536
 11
1.796894
 21
0.121051
  0
LINE
  8
Layer0$C$L0
 10
1.679598
 20
2.496799E-02
 11
1.652725
 21
-1.904964E-03
  0
LINE
  8
Layer0$C$L0
 10
1.908842
 20
0.254213
 11
1.796894
 21
0.142264
  0
LINE
  8
Layer0$C$L0
 10
1.679598
 20
4.618119E-02
 11
1.631512
 21
-1.904964E-03
  0
LINE
  8
Layer0$C$L0
 10
1.894673
 20
0.261256
 11
1.795379
 21
0.161962
  0
LINE
  8
Layer0$C$L0
 10
1.679598
 20
6.739439E-02
 11
1.610299
 21
-1.904964E-03
  0
LINE
  8
Layer0$C$L0
 10
1.879014
 20
0.266810
 11
1.788909
 21
0.176705
  0
LINE
  8
Layer0$C$L0
 10
1.679598
 20
8.860759E-02
 11
1.589085
 21
-1.904964E-03
  0
LINE
  8
Layer0$C$L0
 10
1.861906
 20
0.270915
 11
1.777364
 21
0.186374
  0
LINE
  8
Layer0$C$L0
 10
1.679598
 20
0.109821
 11
1.567872
 21
-1.904964E-03
  0
LINE
  8
Layer0$C$L0
 10
1.843319
 20
0.273542
 11
1.761586
 21
0.191809
  0
LINE
  8
Layer0$C$L0
 10
1.679533
 20
0.130969
 11
1.546659
 21
-1.904964E-03
  0
LINE
  8
Layer0$C$L0
 10
1.823268
 20
0.274704
 11
1.742037
 21
0.193473
  0
LINE
  8
Layer0$C$L0
 10
1.682837
 20
0.155486
 11
1.525446
 21
-1.904964E-03
  0
LINE
  8
Layer0$C$L0
 10
1.801841
 20
0.274490
 11
1.717155
 21
0.189804
  0
LINE
  8
Layer0$C$L0
 10
1.778804
 20
0.272667
 11
1.523945
 21
1.780741E-02
  0
LINE
  8
Layer0$C$L0
 10
1.753045
 20
0.268121
 11
1.523945
 21
3.902061E-02
  0
LINE
  8
Layer0$C$L0
 10
1.721109
 20
0.257398
 11
1.523945
 21
6.023382E-02
  0
LINE
  8
Layer0$C$L0
 10
1.679598
 20
0.237100
 11
1.523945
 21
8.144702E-02
  0
LINE
  8
Layer0$C$L0
 10
1.679598
 20
0.258313
 11
1.523945
 21
0.102660
  0
LINE
  8
Layer0$C$L0
 10
1.679598
 20
0.279526
 11
1.523945
 21
0.123873
  0
LINE
  8
Layer0$C$L0
 10
1.679598
 20
0.300740
 11
1.523945
 21
0.145087
  0
LINE
  8
Layer0$C$L0
 10
1.437023
 20
7.937840E-02
 11
1.387895
 21
3.024982E-02
  0
LINE
  8
Layer0$C$L0
 10
1.679598
 20
0.321953
 11
1.523945
 21
0.166300
  0
LINE
  8
Layer0$C$L0
 10
1.446854
 20
0.110422
 11
1.348406
 21
1.197446E-02
  0
LINE
  8
Layer0$C$L0
 10
1.679598
 20
0.343166
 11
1.523945
 21
0.187513
  0
LINE
  8
Layer0$C$L0
 10
1.446494
 20
0.131275
 11
1.318537
 21
3.318472E-03
  0
LINE
  8
Layer0$C$L0
 10
1.679598
 20
0.364379
 11
1.523945
 21
0.208726
  0
LINE
  8
Layer0$C$L0
 10
1.441996
 20
0.147991
 11
1.292193
 21
-1.812714E-03
  0
LINE
  8
Layer0$C$L0
 10
1.665572
 20
0.371567
 11
1.523945
 21
0.229939
  0
LINE
  8
Layer0$C$L0
 10
1.434809
 20
0.162017
 11
1.267812
 21
-4.980620E-03
  0
LINE
  8
Layer0$C$L0
 10
1.644359
 20
0.371567
 11
1.523945
 21
0.251153
  0
LINE
  8
Layer0$C$L0
 10
1.425646
 20
0.174067
 11
1.244679
 21
-6.900094E-03
  0
LINE
  8
Layer0$C$L0
 10
1.623146
 20
0.371567
 11
1.523945
 21
0.272366
  0
LINE
  8
Layer0$C$L0
 10
1.414840
 20
0.184474
 11
1.222458
 21
-7.907831E-03
  0
LINE
  8
Layer0$C$L0
 10
1.601933
 20
0.371567
 11
1.523945
 21
0.293579
  0
LINE
  8
Layer0$C$L0
 10
1.402624
 20
0.193471
 11
1.200905
 21
-8.247196E-03
  0
LINE
  8
Layer0$C$L0
 10
1.580720
 20
0.371567
 11
1.523945
 21
0.314792
  0
LINE
  8
Layer0$C$L0
 10
1.389199
 20
0.201260
 11
1.179853
 21
-8.086829E-03
  0
LINE
  8
Layer0$C$L0
 10
1.559506
 20
0.371567
 11
1.523945
 21
0.336005
  0
LINE
  8
Layer0$C$L0
 10
1.234736
 20
6.801020E-02
 11
1.159258
 21
-7.468002E-03
  0
LINE
  8
Layer0$C$L0
 10
1.374811
 20
0.208085
 11
1.277726
 21
0.111000
  0
LINE
  8
Layer0$C$L0
 10
1.538293
 20
0.371567
 11
1.523945
 21
0.357219
  0
LINE
  8
Layer0$C$L0
 10
1.210823
 20
6.531045E-02
 11
1.139128
 21
-6.384597E-03
  0
LINE
  8
Layer0$C$L0
 10
1.359614
 20
0.214101
 11
1.268801
 21
0.123288
  0
LINE
  8
Layer0$C$L0
 10
1.425743
 20
0.280229
 11
1.411442
 21
0.265929
  0
LINE
  8
Layer0$C$L0
 10
1.189794
 20
6.549453E-02
 11
1.119517
 21
-4.782636E-03
  0
LINE
  8
Layer0$C$L0
 10
1.343673
 20
0.219374
 11
1.255972
 21
0.131673
  0
LINE
  8
Layer0$C$L0
 10
1.419894
 20
0.295594
 11
1.389371
 21
0.265071
  0
LINE
  8
Layer0$C$L0
 10
1.170818
 20
6.773141E-02
 11
1.100483
 21
-2.603690E-03
  0
LINE
  8
Layer0$C$L0
 10
1.327101
 20
0.224015
 11
1.240507
 21
0.137420
  0
LINE
  8
Layer0$C$L0
 10
1.412285
 20
0.309198
 11
1.367299
 21
0.264213
  0
LINE
  8
Layer0$C$L0
 10
1.153921
 20
7.204732E-02
 11
1.082084
 21
2.109188E-04
  0
LINE
  8
Layer0$C$L0
 10
1.310048
 20
0.228175
 11
1.223707
 21
0.141834
  0
LINE
  8
Layer0$C$L0
 10
1.403096
 20
0.321222
 11
1.345228
 21
0.263355
  0
LINE
  8
Layer0$C$L0
 10
1.139084
 20
7.842416E-02
 11
1.064404
 21
3.744283E-03
  0
LINE
  8
Layer0$C$L0
 10
1.292635
 20
0.231975
 11
1.206097
 21
0.145437
  0
LINE
  8
Layer0$C$L0
 10
1.392442
 20
0.331782
 11
1.323157
 21
0.262496
  0
LINE
  8
Layer0$C$L0
 10
1.126404
 20
8.695740E-02
 11
1.047535
 21
8.088051E-03
  0
LINE
  8
Layer0$C$L0
 10
1.274947
 20
0.235500
 11
1.188007
 21
0.148560
  0
LINE
  8
Layer0$C$L0
 10
1.380366
 20
0.340919
 11
1.301085
 21
0.261638
  0
LINE
  8
Layer0$C$L0
 10
1.116169
 20
9.793525E-02
 11
1.031570
 21
1.333580E-02
  0
LINE
  8
Layer0$C$L0
 10
1.257036
 20
0.238803
 11
1.169704
 21
0.151470
  0
LINE
  8
Layer0$C$L0
 10
1.367002
 20
0.348768
 11
1.279014
 21
0.260780
  0
LINE
  8
Layer0$C$L0
 10
1.108667
 20
0.111647
 11
1.016708
 21
1.968794E-02
  0
LINE
  8
Layer0$C$L0
 10
1.238927
 20
0.241906
 11
1.151439
 21
0.154418
  0
LINE
  8
Layer0$C$L0
 10
1.352457
 20
0.355437
 11
1.263794
 21
0.266774
  0
LINE
  8
Layer0$C$L0
 10
1.103794
 20
0.127986
 11
1.003093
 21
2.728599E-02
  0
LINE
  8
Layer0$C$L0
 10
1.220631
 20
0.244824
 11
1.133367
 21
0.157560
  0
LINE
  8
Layer0$C$L0
 10
1.336837
 20
0.361030
 11
1.256566
 21
0.280759
  0
LINE
  8
Layer0$C$L0
 10
1.082227
 20
0.127633
 11
0.990561
 21
3.596697E-02
  0
LINE
  8
Layer0$C$L0
 10
1.202209
 20
0.247615
 11
1.115609
 21
0.161015
  0
LINE
  8
Layer0$C$L0
 10
1.320276
 20
0.365682
 11
1.246284
 21
0.291690
  0
LINE
  8
Layer0$C$L0
 10
1.060091
 20
0.126710
 11
0.979060
 21
4.567884E-02
  0
LINE
  8
Layer0$C$L0
 10
1.183753
 20
0.250372
 11
1.098218
 21
0.164837
  0
LINE
  8
Layer0$C$L0
 10
1.302859
 20
0.369478
 11
1.232979
 21
0.299598
  0
LINE
  8
Layer0$C$L0
 10
1.037955
 20
0.125787
 11
0.968616
 21
5.644819E-02
  0
LINE
  8
Layer0$C$L0
 10
1.165537
 20
0.253370
 11
1.081214
 21
0.169046
  0
LINE
  8
Layer0$C$L0
 10
1.284657
 20
0.372490
 11
1.216942
 21
0.304774
  0
LINE
  8
Layer0$C$L0
 10
1.015819
 20
0.124865
 11
0.959305
 21
6.835070E-02
  0
LINE
  8
Layer0$C$L0
 10
1.148151
 20
0.257196
 11
1.064651
 21
0.173696
  0
LINE
  8
Layer0$C$L0
 10
1.265738
 20
0.374783
 11
1.198563
 21
0.307608
  0
LINE
  8
Layer0$C$L0
 10
0.993683
 20
0.123942
 11
0.951303
 21
8.156210E-02
  0
LINE
  8
Layer0$C$L0
 10
1.132741
 20
0.263000
 11
1.048608
 21
0.178867
  0
LINE
  8
Layer0$C$L0
 10
1.246157
 20
0.376416
 11
1.178070
 21
0.308329
  0
LINE
  8
Layer0$C$L0
 10
0.971547
 20
0.123019
 11
0.944898
 21
9.636942E-02
  0
LINE
  8
Layer0$C$L0
 10
1.121636
 20
0.273108
 11
1.033211
 21
0.184683
  0
LINE
  8
Layer0$C$L0
 10
1.225957
 20
0.377429
 11
1.154872
 21
0.306344
  0
LINE
  8
Layer0$C$L0
 10
0.949411
 20
0.122096
 11
0.940339
 21
0.113024
  0
LINE
  8
Layer0$C$L0
 10
1.205192
 20
0.377877
 11
1.018608
 21
0.191293
  0
LINE
  8
Layer0$C$L0
 10
1.183925
 20
0.377824
 11
1.004942
 21
0.198840
  0
LINE
  8
Layer0$C$L0
 10
1.162128
 20
0.377240
 11
0.992394
 21
0.207505
  0
LINE
  8
Layer0$C$L0
 10
1.139679
 20
0.376004
 11
0.981232
 21
0.217557
  0
LINE
  8
Layer0$C$L0
 10
1.116341
 20
0.373879
 11
0.971768
 21
0.229306
  0
LINE
  8
Layer0$C$L0
 10
1.091647
 20
0.370398
 11
0.964499
 21
0.243250
  0
LINE
  8
Layer0$C$L0
 10
1.064521
 20
0.364486
 11
0.960357
 21
0.260321
  0
LINE
  8
Layer0$C$L0
 10
1.032298
 20
0.353476
 11
0.961449
 21
0.282626
  0
ENDBLK
  8
Layer0$C$L0
  0
BLOCK
  8
Layer0$C$L0
  2
*X1
 70
     1
 10
0.000000
 20
0.000000
  0
LINE
  8
Layer0$C$L0
 10
3.531619
 20
0.455705
 11
3.543748
 21
0.467833
  0
LINE
  8
Layer0$C$L0
 10
3.543748
 20
0.489047
 11
3.510406
 21
0.455705
  0
LINE
  8
Layer0$C$L0
 10
3.489193
 20
0.455705
 11
3.543748
 21
0.510260
  0
LINE
  8
Layer0$C$L0
 10
3.538759
 20
0.526484
 11
3.467980
 21
0.455705
  0
LINE
  8
Layer0$C$L0
 10
3.446767
 20
0.455705
 11
3.517546
 21
0.526484
  0
LINE
  8
Layer0$C$L0
 10
3.496333
 20
0.526484
 11
3.425553
 21
0.455705
  0
LINE
  8
Layer0$C$L0
 10
3.404340
 20
0.455705
 11
3.475119
 21
0.526484
  0
LINE
  8
Layer0$C$L0
 10
3.453906
 20
0.526484
 11
3.383127
 21
0.455705
  0
LINE
  8
Layer0$C$L0
 10
3.361914
 20
0.455705
 11
3.432693
 21
0.526484
  0
LINE
  8
Layer0$C$L0
 10
3.411480
 20
0.526484
 11
3.340701
 21
0.455705
  0
LINE
  8
Layer0$C$L0
 10
3.319487
 20
0.455705
 11
3.390267
 21
0.526484
  0
LINE
  8
Layer0$C$L0
 10
3.531370
 20
0.667587
 11
3.524912
 21
0.661130
  0
LINE
  8
Layer0$C$L0
 10
3.369053
 20
0.526484
 11
3.298274
 21
0.455705
  0
LINE
  8
Layer0$C$L0
 10
3.531370
 20
0.688801
 11
3.455499
 21
0.612930
  0
LINE
  8
Layer0$C$L0
 10
3.347840
 20
0.526484
 11
3.277061
 21
0.455705
  0
LINE
  8
Layer0$C$L0
 10
3.531370
 20
0.710014
 11
3.386086
 21
0.564730
  0
LINE
  8
Layer0$C$L0
 10
3.526364
 20
0.726221
 11
3.255848
 21
0.455705
  0
LINE
  8
Layer0$C$L0
 10
3.505151
 20
0.726221
 11
3.234635
 21
0.455705
  0
LINE
  8
Layer0$C$L0
 10
3.483938
 20
0.726221
 11
3.213421
 21
0.455705
  0
LINE
  8
Layer0$C$L0
 10
3.462724
 20
0.726221
 11
3.192208
 21
0.455705
  0
LINE
  8
Layer0$C$L0
 10
3.441511
 20
0.726221
 11
3.170995
 21
0.455705
  0
LINE
  8
Layer0$C$L0
 10
3.420298
 20
0.726221
 11
3.149782
 21
0.455705
  0
LINE
  8
Layer0$C$L0
 10
3.305610
 20
0.632746
 11
3.148126
 21
0.475262
  0
LINE
  8
Layer0$C$L0
 10
3.399085
 20
0.726221
 11
3.328305
 21
0.655441
  0
LINE
  8
Layer0$C$L0
 10
3.235513
 20
0.583862
 11
3.148126
 21
0.496475
  0
LINE
  8
Layer0$C$L0
 10
3.377872
 20
0.726221
 11
3.307091
 21
0.655441
  0
LINE
  8
Layer0$C$L0
 10
3.099456
 20
0.469019
 11
3.086142
 21
0.455705
  0
LINE
  8
Layer0$C$L0
 10
3.165416
 20
0.534978
 11
3.148126
 21
0.517689
  0
LINE
  8
Layer0$C$L0
 10
3.356658
 20
0.726221
 11
3.285878
 21
0.655441
  0
LINE
  8
Layer0$C$L0
 10
3.092606
 20
0.483382
 11
3.064929
 21
0.455705
  0
LINE
  8
Layer0$C$L0
 10
3.335445
 20
0.726221
 11
3.264665
 21
0.655441
  0
LINE
  8
Layer0$C$L0
 10
3.089457
 20
0.501446
 11
3.043716
 21
0.455705
  0
LINE
  8
Layer0$C$L0
 10
3.314232
 20
0.726221
 11
3.243452
 21
0.655441
  0
LINE
  8
Layer0$C$L0
 10
3.089039
 20
0.522241
 11
3.022503
 21
0.455705
  0
LINE
  8
Layer0$C$L0
 10
3.293019
 20
0.726221
 11
3.222239
 21
0.655441
  0
LINE
  8
Layer0$C$L0
 10
3.089039
 20
0.543455
 11
3.001289
 21
0.455705
  0
LINE
  8
Layer0$C$L0
 10
3.271805
 20
0.726221
 11
3.201025
 21
0.655441
  0
LINE
  8
Layer0$C$L0
 10
3.089039
 20
0.564668
 11
2.980076
 21
0.455705
  0
LINE
  8
Layer0$C$L0
 10
3.250592
 20
0.726221
 11
3.179812
 21
0.655441
  0
LINE
  8
Layer0$C$L0
 10
3.089039
 20
0.585881
 11
2.962459
 21
0.459301
  0
LINE
  8
Layer0$C$L0
 10
3.229379
 20
0.726221
 11
3.163189
 21
0.660031
  0
LINE
  8
Layer0$C$L0
 10
3.089039
 20
0.607094
 11
2.953958
 21
0.472013
  0
LINE
  8
Layer0$C$L0
 10
3.208166
 20
0.726221
 11
3.163189
 21
0.681244
  0
LINE
  8
Layer0$C$L0
 10
3.089039
 20
0.628307
 11
2.949028
 21
0.488296
  0
LINE
  8
Layer0$C$L0
 10
3.186953
 20
0.726221
 11
3.163189
 21
0.702457
  0
LINE
  8
Layer0$C$L0
 10
3.087374
 20
0.647856
 11
2.905856
 21
0.466338
  0
LINE
  8
Layer0$C$L0
 10
3.165739
 20
0.726221
 11
3.163189
 21
0.723671
  0
LINE
  8
Layer0$C$L0
 10
3.082223
 20
0.663918
 11
2.875689
 21
0.457384
  0
LINE
  8
Layer0$C$L0
 10
3.075031
 20
0.677939
 11
2.850067
 21
0.452975
  0
LINE
  8
Layer0$C$L0
 10
2.887318
 20
0.511440
 11
2.826504
 21
0.450625
  0
LINE
  8
Layer0$C$L0
 10
3.065956
 20
0.690077
 11
2.940107
 21
0.564228
  0
LINE
  8
Layer0$C$L0
 10
2.862134
 20
0.507468
 11
2.804351
 21
0.449685
  0
LINE
  8
Layer0$C$L0
 10
3.054860
 20
0.700195
 11
2.938343
 21
0.583678
  0
LINE
  8
Layer0$C$L0
 10
2.841146
 20
0.507693
 11
2.783260
 21
0.449808
  0
LINE
  8
Layer0$C$L0
 10
3.041848
 20
0.708395
 11
2.910912
 21
0.577459
  0
LINE
  8
Layer0$C$L0
 10
2.823569
 20
0.511330
 11
2.763187
 21
0.450948
  0
LINE
  8
Layer0$C$L0
 10
3.027342
 20
0.715103
 11
2.884577
 21
0.572337
  0
LINE
  8
Layer0$C$L0
 10
2.810289
 20
0.519263
 11
2.744230
 21
0.453204
  0
LINE
  8
Layer0$C$L0
 10
2.922885
 20
0.631860
 11
2.858382
 21
0.567356
  0
LINE
  8
Layer0$C$L0
 10
3.011510
 20
0.720484
 11
2.942942
 21
0.651916
  0
LINE
  8
Layer0$C$L0
 10
2.803451
 20
0.533638
 11
2.726509
 21
0.456697
  0
LINE
  8
Layer0$C$L0
 10
2.895519
 20
0.625706
 11
2.829888
 21
0.560075
  0
LINE
  8
Layer0$C$L0
 10
2.994370
 20
0.724557
 11
2.934641
 21
0.664828
  0
LINE
  8
Layer0$C$L0
 10
2.869720
 20
0.621120
 11
2.710175
 21
0.461575
  0
LINE
  8
Layer0$C$L0
 10
2.976031
 20
0.727431
 11
2.920654
 21
0.672054
  0
LINE
  8
Layer0$C$L0
 10
2.844688
 20
0.617302
 11
2.695292
 21
0.467906
  0
LINE
  8
Layer0$C$L0
 10
2.956773
 20
0.729386
 11
2.902567
 21
0.675181
  0
LINE
  8
Layer0$C$L0
 10
2.819920
 20
0.613747
 11
2.681897
 21
0.475724
  0
LINE
  8
Layer0$C$L0
 10
2.936890
 20
0.730716
 11
2.881878
 21
0.675705
  0
LINE
  8
Layer0$C$L0
 10
2.795320
 20
0.610360
 11
2.670150
 21
0.485190
  0
LINE
  8
Layer0$C$L0
 10
2.916583
 20
0.731623
 11
2.859189
 21
0.674229
  0
LINE
  8
Layer0$C$L0
 10
2.770564
 20
0.606817
 11
2.660382
 21
0.496635
  0
LINE
  8
Layer0$C$L0
 10
2.895925
 20
0.732178
 11
2.831669
 21
0.667922
  0
LINE
  8
Layer0$C$L0
 10
2.745062
 20
0.602528
 11
2.653432
 21
0.510898
  0
LINE
  8
Layer0$C$L0
 10
2.874931
 20
0.732397
 11
2.787682
 21
0.645149
  0
LINE
  8
Layer0$C$L0
 10
2.717311
 20
0.595991
 11
2.650939
 21
0.529618
  0
LINE
  8
Layer0$C$L0
 10
2.853569
 20
0.732248
 11
2.767890
 21
0.646569
  0
LINE
  8
Layer0$C$L0
 10
2.679499
 20
0.579392
 11
2.660540
 21
0.560433
  0
LINE
  8
Layer0$C$L0
 10
2.831649
 20
0.731542
 11
2.748097
 21
0.647990
  0
LINE
  8
Layer0$C$L0
 10
2.808950
 20
0.730056
 11
2.728305
 21
0.649411
  0
LINE
  8
Layer0$C$L0
 10
2.785289
 20
0.727608
 11
2.708512
 21
0.650831
  0
LINE
  8
Layer0$C$L0
 10
2.760115
 20
0.723648
 11
2.688720
 21
0.652252
  0
LINE
  8
Layer0$C$L0
 10
2.730878
 20
0.715624
 11
2.668927
 21
0.653673
  0
LINE
  8
Layer0$C$L0
 10
2.470850
 20
0.476809
 11
2.449746
 21
0.455705
  0
LINE
  8
Layer0$C$L0
 10
2.470850
 20
0.498022
 11
2.428533
 21
0.455705
  0
LINE
  8
Layer0$C$L0
 10
2.470850
 20
0.519235
 11
2.407320
 21
0.455705
  0
LINE
  8
Layer0$C$L0
 10
2.470850
 20
0.540448
 11
2.386106
 21
0.455705
  0
LINE
  8
Layer0$C$L0
 10
2.598834
 20
0.668433
 11
2.576546
 21
0.646144
  0
LINE
  8
Layer0$C$L0
 10
2.470967
 20
0.561779
 11
2.364893
 21
0.455705
  0
LINE
  8
Layer0$C$L0
 10
2.628161
 20
0.718973
 11
2.559188
 21
0.649999
  0
LINE
  8
Layer0$C$L0
 10
2.473558
 20
0.585583
 11
2.343680
 21
0.455705
  0
LINE
  8
Layer0$C$L0
 10
2.612037
 20
0.724062
 11
2.539853
 21
0.651878
  0
LINE
  8
Layer0$C$L0
 10
2.481300
 20
0.614538
 11
2.322467
 21
0.455705
  0
LINE
  8
Layer0$C$L0
 10
2.594993
 20
0.728231
 11
2.514487
 21
0.647725
  0
LINE
  8
Layer0$C$L0
 10
2.576754
 20
0.731206
 11
2.317961
 21
0.472412
  0
LINE
  8
Layer0$C$L0
 10
2.556730
 20
0.732394
 11
2.317961
 21
0.493625
  0
LINE
  8
Layer0$C$L0
 10
2.533939
 20
0.730816
 11
2.317961
 21
0.514839
  0
LINE
  8
Layer0$C$L0
 10
2.503962
 20
0.722053
 11
2.317961
 21
0.536052
  0
LINE
  8
Layer0$C$L0
 10
2.460386
 20
0.699690
 11
2.317961
 21
0.557265
  0
LINE
  8
Layer0$C$L0
 10
2.460386
 20
0.720903
 11
2.317961
 21
0.578478
  0
LINE
  8
Layer0$C$L0
 10
2.444490
 20
0.726221
 11
2.317961
 21
0.599692
  0
LINE
  8
Layer0$C$L0
 10
2.423277
 20
0.726221
 11
2.317961
 21
0.620905
  0
LINE
  8
Layer0$C$L0
 10
2.402064
 20
0.726221
 11
2.317961
 21
0.642118
  0
LINE
  8
Layer0$C$L0
 10
2.380851
 20
0.726221
 11
2.317961
 21
0.663331
  0
LINE
  8
Layer0$C$L0
 10
2.098712
 20
0.465295
 11
2.089122
 21
0.455705
  0
LINE
  8
Layer0$C$L0
 10
2.359638
 20
0.726221
 11
2.317961
 21
0.684544
  0
LINE
  8
Layer0$C$L0
 10
2.098712
 20
0.486509
 11
2.067908
 21
0.455705
  0
LINE
  8
Layer0$C$L0
 10
2.338424
 20
0.726221
 11
2.317961
 21
0.705757
  0
LINE
  8
Layer0$C$L0
 10
2.098712
 20
0.507722
 11
2.046695
 21
0.455705
  0
LINE
  8
Layer0$C$L0
 10
2.098712
 20
0.528935
 11
2.025482
 21
0.455705
  0
LINE
  8
Layer0$C$L0
 10
2.098619
 20
0.550056
 11
2.004269
 21
0.455705
  0
LINE
  8
Layer0$C$L0
 10
2.243726
 20
0.695162
 11
2.196607
 21
0.648043
  0
LINE
  8
Layer0$C$L0
 10
2.099643
 20
0.572292
 11
1.983056
 21
0.455705
  0
LINE
  8
Layer0$C$L0
 10
2.248762
 20
0.721412
 11
2.178595
 21
0.651244
  0
LINE
  8
Layer0$C$L0
 10
2.103786
 20
0.597649
 11
1.961842
 21
0.455705
  0
LINE
  8
Layer0$C$L0
 10
2.232226
 20
0.726088
 11
2.157379
 21
0.651241
  0
LINE
  8
Layer0$C$L0
 10
2.214695
 20
0.729771
 11
1.945819
 21
0.460895
  0
LINE
  8
Layer0$C$L0
 10
2.195721
 20
0.732010
 11
1.945819
 21
0.482108
  0
LINE
  8
Layer0$C$L0
 10
2.174619
 20
0.732121
 11
1.945819
 21
0.503321
  0
LINE
  8
Layer0$C$L0
 10
2.149714
 20
0.728430
 11
1.945819
 21
0.524534
  0
LINE
  8
Layer0$C$L0
 10
2.088248
 20
0.688177
 11
1.945819
 21
0.545747
  0
LINE
  8
Layer0$C$L0
 10
2.088248
 20
0.709390
 11
1.945819
 21
0.566961
  0
LINE
  8
Layer0$C$L0
 10
2.083866
 20
0.726221
 11
1.945819
 21
0.588174
  0
LINE
  8
Layer0$C$L0
 10
1.853005
 20
0.516573
 11
1.825704
 21
0.489272
  0
LINE
  8
Layer0$C$L0
 10
2.062653
 20
0.726221
 11
1.945819
 21
0.609387
  0
LINE
  8
Layer0$C$L0
 10
1.833042
 20
0.517823
 11
1.782293
 21
0.467074
  0
LINE
  8
Layer0$C$L0
 10
2.041440
 20
0.726221
 11
1.945819
 21
0.630600
  0
LINE
  8
Layer0$C$L0
 10
1.813078
 20
0.519073
 11
1.752915
 21
0.458910
  0
LINE
  8
Layer0$C$L0
 10
1.874379
 20
0.580374
 11
1.859273
 21
0.565268
  0
LINE
  8
Layer0$C$L0
 10
2.020226
 20
0.726221
 11
1.945819
 21
0.651814
  0
LINE
  8
Layer0$C$L0
 10
1.793115
 20
0.520323
 11
1.727309
 21
0.454517
  0
LINE
  8
Layer0$C$L0
 10
1.873090
 20
0.600298
 11
1.838060
 21
0.565268
  0
LINE
  8
Layer0$C$L0
 10
1.999013
 20
0.726221
 11
1.945819
 21
0.673027
  0
LINE
  8
Layer0$C$L0
 10
1.773152
 20
0.521573
 11
1.703509
 21
0.451930
  0
LINE
  8
Layer0$C$L0
 10
1.869829
 20
0.618250
 11
1.816847
 21
0.565268
  0
LINE
  8
Layer0$C$L0
 10
1.977800
 20
0.726221
 11
1.945819
 21
0.694240
  0
LINE
  8
Layer0$C$L0
 10
1.753189
 20
0.522823
 11
1.680817
 21
0.450451
  0
LINE
  8
Layer0$C$L0
 10
1.864877
 20
0.634511
 11
1.795634
 21
0.565268
  0
LINE
  8
Layer0$C$L0
 10
1.956587
 20
0.726221
 11
1.945819
 21
0.715453
  0
LINE
  8
Layer0$C$L0
 10
1.733226
 20
0.524073
 11
1.658899
 21
0.449747
  0
LINE
  8
Layer0$C$L0
 10
1.858206
 20
0.649054
 11
1.774421
 21
0.565268
  0
LINE
  8
Layer0$C$L0
 10
1.713263
 20
0.525323
 11
1.637582
 21
0.449643
  0
LINE
  8
Layer0$C$L0
 10
1.849960
 20
0.662020
 11
1.753207
 21
0.565268
  0
LINE
  8
Layer0$C$L0
 10
1.675422
 20
0.508695
 11
1.616810
 21
0.450084
  0
LINE
  8
Layer0$C$L0
 10
1.840297
 20
0.673571
 11
1.731994
 21
0.565268
  0
LINE
  8
Layer0$C$L0
 10
1.651071
 20
0.505558
 11
1.596657
 21
0.451144
  0
LINE
  8
Layer0$C$L0
 10
1.829367
 20
0.683854
 11
1.710781
 21
0.565268
  0
LINE
  8
Layer0$C$L0
 10
1.630711
 20
0.506412
 11
1.577200
 21
0.452900
  0
LINE
  8
Layer0$C$L0
 10
1.817292
 20
0.692992
 11
1.689568
 21
0.565268
  0
LINE
  8
Layer0$C$L0
 10
1.613162
 20
0.510075
 11
1.558514
 21
0.455427
  0
LINE
  8
Layer0$C$L0
 10
1.713004
 20
0.609917
 11
1.668355
 21
0.565268
  0
LINE
  8
Layer0$C$L0
 10
1.804154
 20
0.701067
 11
1.723976
 21
0.620890
  0
LINE
  8
Layer0$C$L0
 10
1.598088
 20
0.516215
 11
1.540710
 21
0.458837
  0
LINE
  8
Layer0$C$L0
 10
1.691790
 20
0.609917
 11
1.647141
 21
0.565268
  0
LINE
  8
Layer0$C$L0
 10
1.790006
 20
0.708133
 11
1.718802
 21
0.636928
  0
LINE
  8
Layer0$C$L0
 10
1.585348
 20
0.524688
 11
1.523907
 21
0.463247
  0
LINE
  8
Layer0$C$L0
 10
1.670577
 20
0.609917
 11
1.625928
 21
0.565268
  0
LINE
  8
Layer0$C$L0
 10
1.774879
 20
0.714219
 11
1.711093
 21
0.650433
  0
LINE
  8
Layer0$C$L0
 10
1.575164
 20
0.535717
 11
1.508211
 21
0.468764
  0
LINE
  8
Layer0$C$L0
 10
1.649364
 20
0.609917
 11
1.604715
 21
0.565268
  0
LINE
  8
Layer0$C$L0
 10
1.758788
 20
0.719341
 11
1.700377
 21
0.660930
  0
LINE
  8
Layer0$C$L0
 10
1.568069
 20
0.549836
 11
1.493604
 21
0.475370
  0
LINE
  8
Layer0$C$L0
 10
1.628151
 20
0.609917
 11
1.583502
 21
0.565268
  0
LINE
  8
Layer0$C$L0
 10
1.741739
 20
0.723505
 11
1.686808
 21
0.668574
  0
LINE
  8
Layer0$C$L0
 10
1.606938
 20
0.609917
 11
1.480030
 21
0.483009
  0
LINE
  8
Layer0$C$L0
 10
1.723770
 20
0.726749
 11
1.670594
 21
0.673574
  0
LINE
  8
Layer0$C$L0
 10
1.585724
 20
0.609917
 11
1.467445
 21
0.491637
  0
LINE
  8
Layer0$C$L0
 10
1.704983
 20
0.729176
 11
1.651686
 21
0.675878
  0
LINE
  8
Layer0$C$L0
 10
1.564750
 20
0.610156
 11
1.455834
 21
0.501240
  0
LINE
  8
Layer0$C$L0
 10
1.685480
 20
0.730886
 11
1.629631
 21
0.675037
  0
LINE
  8
Layer0$C$L0
 10
1.571266
 20
0.637885
 11
1.445233
 21
0.511852
  0
LINE
  8
Layer0$C$L0
 10
1.665333
 20
0.731952
 11
1.599064
 21
0.665684
  0
LINE
  8
Layer0$C$L0
 10
1.644556
 20
0.732388
 11
1.435729
 21
0.523561
  0
LINE
  8
Layer0$C$L0
 10
1.623096
 20
0.732141
 11
1.427558
 21
0.536603
  0
LINE
  8
Layer0$C$L0
 10
1.600720
 20
0.730979
 11
1.421062
 21
0.551320
  0
LINE
  8
Layer0$C$L0
 10
1.576991
 20
0.728462
 11
1.416568
 21
0.568040
  0
LINE
  8
Layer0$C$L0
 10
1.551254
 20
0.723939
 11
1.414582
 21
0.587267
  0
LINE
  8
Layer0$C$L0
 10
1.522075
 20
0.715974
 11
1.416035
 21
0.609933
  0
LINE
  8
Layer0$C$L0
 10
1.484007
 20
0.699119
 11
1.425723
 21
0.640834
  0
LINE
  8
Layer0$C$L0
 10
1.342311
 20
0.621062
 11
1.329560
 21
0.608311
  0
LINE
  8
Layer0$C$L0
 10
1.342311
 20
0.642275
 11
1.308347
 21
0.608311
  0
LINE
  8
Layer0$C$L0
 10
1.342311
 20
0.663488
 11
1.287134
 21
0.608311
  0
LINE
  8
Layer0$C$L0
 10
1.129949
 20
0.472340
 11
1.113314
 21
0.455705
  0
LINE
  8
Layer0$C$L0
 10
1.341310
 20
0.683701
 11
1.265920
 21
0.608311
  0
LINE
  8
Layer0$C$L0
 10
1.129949
 20
0.493553
 11
1.092101
 21
0.455705
  0
LINE
  8
Layer0$C$L0
 10
1.320097
 20
0.683701
 11
1.244707
 21
0.608311
  0
LINE
  8
Layer0$C$L0
 10
1.129949
 20
0.514766
 11
1.070888
 21
0.455705
  0
LINE
  8
Layer0$C$L0
 10
1.298884
 20
0.683701
 11
1.223494
 21
0.608311
  0
LINE
  8
Layer0$C$L0
 10
1.378677
 20
0.763494
 11
1.364100
 21
0.748917
  0
LINE
  8
Layer0$C$L0
 10
1.129949
 20
0.535979
 11
1.049675
 21
0.455705
  0
LINE
  8
Layer0$C$L0
 10
1.277671
 20
0.683701
 11
1.202281
 21
0.608311
  0
LINE
  8
Layer0$C$L0
 10
1.378677
 20
0.784707
 11
1.342887
 21
0.748917
  0
LINE
  8
Layer0$C$L0
 10
1.129949
 20
0.557192
 11
1.028461
 21
0.455705
  0
LINE
  8
Layer0$C$L0
 10
1.256457
 20
0.683701
 11
1.181068
 21
0.608311
  0
LINE
  8
Layer0$C$L0
 10
1.378677
 20
0.805920
 11
1.321674
 21
0.748917
  0
LINE
  8
Layer0$C$L0
 10
1.129949
 20
0.578406
 11
1.007248
 21
0.455705
  0
LINE
  8
Layer0$C$L0
 10
1.235244
 20
0.683701
 11
1.159854
 21
0.608311
  0
LINE
  8
Layer0$C$L0
 10
1.378677
 20
0.827134
 11
1.300460
 21
0.748917
  0
LINE
  8
Layer0$C$L0
 10
1.129949
 20
0.599619
 11
0.986035
 21
0.455705
  0
LINE
  8
Layer0$C$L0
 10
1.214031
 20
0.683701
 11
1.138641
 21
0.608311
  0
LINE
  8
Layer0$C$L0
 10
1.359507
 20
0.829177
 11
1.279247
 21
0.748917
  0
LINE
  8
Layer0$C$L0
 10
1.192818
 20
0.683701
 11
0.964822
 21
0.455705
  0
LINE
  8
Layer0$C$L0
 10
1.338294
 20
0.829177
 11
1.258034
 21
0.748917
  0
LINE
  8
Layer0$C$L0
 10
1.171605
 20
0.683701
 11
0.959827
 21
0.471923
  0
LINE
  8
Layer0$C$L0
 10
1.317081
 20
0.829177
 11
1.236821
 21
0.748917
  0
LINE
  8
Layer0$C$L0
 10
1.150391
 20
0.683701
 11
0.959827
 21
0.493136
  0
LINE
  8
Layer0$C$L0
 10
1.295867
 20
0.829177
 11
1.215607
 21
0.748917
  0
LINE
  8
Layer0$C$L0
 10
1.129949
 20
0.684472
 11
0.959827
 21
0.514350
  0
LINE
  8
Layer0$C$L0
 10
1.274654
 20
0.829177
 11
1.194394
 21
0.748917
  0
LINE
  8
Layer0$C$L0
 10
1.129949
 20
0.705685
 11
0.959827
 21
0.535563
  0
LINE
  8
Layer0$C$L0
 10
1.253441
 20
0.829177
 11
1.173181
 21
0.748917
  0
LINE
  8
Layer0$C$L0
 10
1.129949
 20
0.726898
 11
0.959827
 21
0.556776
  0
LINE
  8
Layer0$C$L0
 10
1.232228
 20
0.829177
 11
1.151968
 21
0.748917
  0
LINE
  8
Layer0$C$L0
 10
1.129949
 20
0.748111
 11
0.959827
 21
0.577989
  0
LINE
  8
Layer0$C$L0
 10
1.211015
 20
0.829177
 11
1.130755
 21
0.748917
  0
LINE
  8
Layer0$C$L0
 10
1.189801
 20
0.829177
 11
0.959827
 21
0.599203
  0
LINE
  8
Layer0$C$L0
 10
1.168588
 20
0.829177
 11
0.959827
 21
0.620416
  0
LINE
  8
Layer0$C$L0
 10
1.147375
 20
0.829177
 11
0.959827
 21
0.641629
  0
LINE
  8
Layer0$C$L0
 10
1.126162
 20
0.829177
 11
0.959827
 21
0.662842
  0
LINE
  8
Layer0$C$L0
 10
1.104949
 20
0.829177
 11
0.959827
 21
0.684055
  0
LINE
  8
Layer0$C$L0
 10
1.083735
 20
0.829177
 11
0.959827
 21
0.705269
  0
LINE
  8
Layer0$C$L0
 10
1.062522
 20
0.829177
 11
0.959827
 21
0.726482
  0
LINE
  8
Layer0$C$L0
 10
1.041309
 20
0.829177
 11
0.959827
 21
0.747695
  0
LINE
  8
Layer0$C$L0
 10
1.020096
 20
0.829177
 11
0.959827
 21
0.768908
  0
LINE
  8
Layer0$C$L0
 10
0.998883
 20
0.829177
 11
0.959827
 21
0.790121
  0
LINE
  8
Layer0$C$L0
 10
0.977669
 20
0.829177
 11
0.959827
 21
0.811335
  0
ENDBLK
  8
Layer0$C$L0
  0
BLOCK
  8
Layer0$C$L0
  2
*X2
 70
     1
 10
0.000000
 20
0.000000
  0
LINE
  8
Layer0$C$L0
 10
4.881419
 20
0.440788
 11
4.891315
 21
0.450684
  0
LINE
  8
Layer0$C$L0
 10
4.891315
 20
0.464827
 11
4.867276
 21
0.440788
  0
LINE
  8
Layer0$C$L0
 10
4.853134
 20
0.440788
 11
4.891315
 21
0.478969
  0
LINE
  8
Layer0$C$L0
 10
4.891315
 20
0.493111
 11
4.838992
 21
0.440788
  0
LINE
  8
Layer0$C$L0
 10
4.824850
 20
0.440788
 11
4.891315
 21
0.507253
  0
LINE
  8
Layer0$C$L0
 10
4.891315
 20
0.521395
 11
4.810708
 21
0.440788
  0
LINE
  8
Layer0$C$L0
 10
4.796566
 20
0.440788
 11
4.891315
 21
0.535537
  0
LINE
  8
Layer0$C$L0
 10
4.891315
 20
0.549679
 11
4.782423
 21
0.440788
  0
LINE
  8
Layer0$C$L0
 10
4.768281
 20
0.440788
 11
4.891315
 21
0.563821
  0
LINE
  8
Layer0$C$L0
 10
4.891315
 20
0.577964
 11
4.754139
 21
0.440788
  0
LINE
  8
Layer0$C$L0
 10
4.739997
 20
0.440788
 11
4.891315
 21
0.592106
  0
LINE
  8
Layer0$C$L0
 10
4.891315
 20
0.606248
 11
4.725855
 21
0.440788
  0
LINE
  8
Layer0$C$L0
 10
4.711713
 20
0.440788
 11
4.891315
 21
0.620390
  0
LINE
  8
Layer0$C$L0
 10
4.891315
 20
0.634532
 11
4.697571
 21
0.440788
  0
LINE
  8
Layer0$C$L0
 10
4.683429
 20
0.440788
 11
4.891315
 21
0.648674
  0
LINE
  8
Layer0$C$L0
 10
4.891315
 20
0.662816
 11
4.669286
 21
0.440788
  0
LINE
  8
Layer0$C$L0
 10
4.655144
 20
0.440788
 11
4.891315
 21
0.676959
  0
LINE
  8
Layer0$C$L0
 10
4.891315
 20
0.691101
 11
4.641002
 21
0.440788
  0
LINE
  8
Layer0$C$L0
 10
4.626860
 20
0.440788
 11
4.891315
 21
0.705243
  0
LINE
  8
Layer0$C$L0
 10
4.891315
 20
0.719385
 11
4.612718
 21
0.440788
  0
LINE
  8
Layer0$C$L0
 10
4.598576
 20
0.440788
 11
4.885052
 21
0.727264
  0
LINE
  8
Layer0$C$L0
 10
4.870910
 20
0.727264
 11
4.584434
 21
0.440788
  0
LINE
  8
Layer0$C$L0
 10
4.570292
 20
0.440788
 11
4.856768
 21
0.727264
  0
LINE
  8
Layer0$C$L0
 10
4.842626
 20
0.727264
 11
4.556149
 21
0.440788
  0
LINE
  8
Layer0$C$L0
 10
4.542007
 20
0.440788
 11
4.828484
 21
0.727264
  0
LINE
  8
Layer0$C$L0
 10
4.814341
 20
0.727264
 11
4.527865
 21
0.440788
  0
LINE
  8
Layer0$C$L0
 10
4.513723
 20
0.440788
 11
4.800199
 21
0.727264
  0
LINE
  8
Layer0$C$L0
 10
4.786057
 20
0.727264
 11
4.499581
 21
0.440788
  0
LINE
  8
Layer0$C$L0
 10
4.485439
 20
0.440788
 11
4.771915
 21
0.727264
  0
LINE
  8
Layer0$C$L0
 10
4.757773
 20
0.727264
 11
4.471297
 21
0.440788
  0
LINE
  8
Layer0$C$L0
 10
4.457154
 20
0.440788
 11
4.743630
 21
0.727264
  0
LINE
  8
Layer0$C$L0
 10
4.729488
 20
0.727264
 11
4.443012
 21
0.440788
  0
LINE
  8
Layer0$C$L0
 10
4.428870
 20
0.440788
 11
4.715346
 21
0.727264
  0
LINE
  8
Layer0$C$L0
 10
4.701204
 20
0.727264
 11
4.414728
 21
0.440788
  0
LINE
  8
Layer0$C$L0
 10
4.400586
 20
0.440788
 11
4.687062
 21
0.727264
  0
LINE
  8
Layer0$C$L0
 10
4.672920
 20
0.727264
 11
4.386444
 21
0.440788
  0
LINE
  8
Layer0$C$L0
 10
4.372302
 20
0.440788
 11
4.658778
 21
0.727264
  0
LINE
  8
Layer0$C$L0
 10
4.644636
 20
0.727264
 11
4.358160
 21
0.440788
  0
LINE
  8
Layer0$C$L0
 10
4.344018
 20
0.440788
 11
4.630494
 21
0.727264
  0
LINE
  8
Layer0$C$L0
 10
4.616351
 20
0.727264
 11
4.329875
 21
0.440788
  0
LINE
  8
Layer0$C$L0
 10
4.315733
 20
0.440788
 11
4.602209
 21
0.727264
  0
LINE
  8
Layer0$C$L0
 10
4.588067
 20
0.727264
 11
4.301591
 21
0.440788
  0
LINE
  8
Layer0$C$L0
 10
4.287449
 20
0.440788
 11
4.573925
 21
0.727264
  0
LINE
  8
Layer0$C$L0
 10
4.559783
 20
0.727264
 11
4.273307
 21
0.440788
  0
LINE
  8
Layer0$C$L0
 10
4.259164
 20
0.440788
 11
4.545640
 21
0.727264
  0
LINE
  8
Layer0$C$L0
 10
4.531498
 20
0.727264
 11
4.245022
 21
0.440788
  0
LINE
  8
Layer0$C$L0
 10
4.230880
 20
0.440788
 11
4.517356
 21
0.727264
  0
LINE
  8
Layer0$C$L0
 10
4.503214
 20
0.727264
 11
4.216738
 21
0.440788
  0
LINE
  8
Layer0$C$L0
 10
4.202596
 20
0.440788
 11
4.489072
 21
0.727264
  0
LINE
  8
Layer0$C$L0
 10
4.474930
 20
0.727264
 11
4.188454
 21
0.440788
  0
LINE
  8
Layer0$C$L0
 10
4.174312
 20
0.440788
 11
4.460788
 21
0.727264
  0
LINE
  8
Layer0$C$L0
 10
4.446646
 20
0.727264
 11
4.160170
 21
0.440788
  0
LINE
  8
Layer0$C$L0
 10
4.146028
 20
0.440788
 11
4.432504
 21
0.727264
  0
LINE
  8
Layer0$C$L0
 10
4.418362
 20
0.727264
 11
4.131886
 21
0.440788
  0
LINE
  8
Layer0$C$L0
 10
4.117743
 20
0.440788
 11
4.404219
 21
0.727264
  0
LINE
  8
Layer0$C$L0
 10
4.390077
 20
0.727264
 11
4.103601
 21
0.440788
  0
LINE
  8
Layer0$C$L0
 10
4.089459
 20
0.440788
 11
4.375935
 21
0.727264
  0
LINE
  8
Layer0$C$L0
 10
4.361793
 20
0.727264
 11
4.075317
 21
0.440788
  0
LINE
  8
Layer0$C$L0
 10
4.061174
 20
0.440788
 11
4.347651
 21
0.727264
  0
LINE
  8
Layer0$C$L0
 10
4.333508
 20
0.727264
 11
4.047032
 21
0.440788
  0
LINE
  8
Layer0$C$L0
 10
4.032890
 20
0.440788
 11
4.319366
 21
0.727264
  0
LINE
  8
Layer0$C$L0
 10
4.305224
 20
0.727264
 11
4.018748
 21
0.440788
  0
LINE
  8
Layer0$C$L0
 10
4.004606
 20
0.440788
 11
4.291082
 21
0.727264
  0
LINE
  8
Layer0$C$L0
 10
4.276940
 20
0.727264
 11
3.990464
 21
0.440788
  0
LINE
  8
Layer0$C$L0
 10
3.976322
 20
0.440788
 11
4.262798
 21
0.727264
  0
LINE
  8
Layer0$C$L0
 10
4.248656
 20
0.727264
 11
3.962180
 21
0.440788
  0
LINE
  8
Layer0$C$L0
 10
3.948038
 20
0.440788
 11
4.234514
 21
0.727264
  0
LINE
  8
Layer0$C$L0
 10
4.220372
 20
0.727264
 11
3.933895
 21
0.440788
  0
LINE
  8
Layer0$C$L0
 10
3.919753
 20
0.440788
 11
4.206229
 21
0.727264
  0
LINE
  8
Layer0$C$L0
 10
4.192087
 20
0.727264
 11
3.905611
 21
0.440788
  0
LINE
  8
Layer0$C$L0
 10
3.891469
 20
0.440788
 11
4.177945
 21
0.727264
  0
LINE
  8
Layer0$C$L0
 10
4.163803
 20
0.727264
 11
3.877327
 21
0.440788
  0
LINE
  8
Layer0$C$L0
 10
3.863185
 20
0.440788
 11
4.149661
 21
0.727264
  0
LINE
  8
Layer0$C$L0
 10
4.135519
 20
0.727264
 11
3.849043
 21
0.440788
  0
LINE
  8
Layer0$C$L0
 10
3.834900
 20
0.440788
 11
4.121377
 21
0.727264
  0
LINE
  8
Layer0$C$L0
 10
4.107234
 20
0.727264
 11
3.820758
 21
0.440788
  0
LINE
  8
Layer0$C$L0
 10
3.806616
 20
0.440788
 11
4.093092
 21
0.727264
  0
LINE
  8
Layer0$C$L0
 10
4.078950
 20
0.727264
 11
3.792474
 21
0.440788
  0
LINE
  8
Layer0$C$L0
 10
3.778332
 20
0.440788
 11
4.064808
 21
0.727264
  0
LINE
  8
Layer0$C$L0
 10
4.050666
 20
0.727264
 11
3.764190
 21
0.440788
  0
LINE
  8
Layer0$C$L0
 10
3.750048
 20
0.440788
 11
4.036524
 21
0.727264
  0
LINE
  8
Layer0$C$L0
 10
4.022382
 20
0.727264
 11
3.735905
 21
0.440788
  0
LINE
  8
Layer0$C$L0
 10
3.721763
 20
0.440788
 11
4.008240
 21
0.727264
  0
LINE
  8
Layer0$C$L0
 10
3.994097
 20
0.727264
 11
3.707621
 21
0.440788
  0
LINE
  8
Layer0$C$L0
 10
3.704484
 20
0.451793
 11
3.979955
 21
0.727264
  0
LINE
  8
Layer0$C$L0
 10
3.965813
 20
0.727264
 11
3.704484
 21
0.465935
  0
LINE
  8
Layer0$C$L0
 10
3.704484
 20
0.480077
 11
3.951671
 21
0.727264
  0
LINE
  8
Layer0$C$L0
 10
3.937529
 20
0.727264
 11
3.704484
 21
0.494219
  0
LINE
  8
Layer0$C$L0
 10
3.704484
 20
0.508361
 11
3.923387
 21
0.727264
  0
LINE
  8
Layer0$C$L0
 10
3.909245
 20
0.727264
 11
3.704484
 21
0.522503
  0
LINE
  8
Layer0$C$L0
 10
3.704484
 20
0.536646
 11
3.895103
 21
0.727264
  0
LINE
  8
Layer0$C$L0
 10
3.880960
 20
0.727264
 11
3.704484
 21
0.550788
  0
LINE
  8
Layer0$C$L0
 10
3.704484
 20
0.564930
 11
3.866818
 21
0.727264
  0
LINE
  8
Layer0$C$L0
 10
3.852676
 20
0.727264
 11
3.704484
 21
0.579072
  0
LINE
  8
Layer0$C$L0
 10
3.704484
 20
0.593214
 11
3.838534
 21
0.727264
  0
LINE
  8
Layer0$C$L0
 10
3.824392
 20
0.727264
 11
3.704484
 21
0.607356
  0
LINE
  8
Layer0$C$L0
 10
3.704484
 20
0.621498
 11
3.810250
 21
0.727264
  0
LINE
  8
Layer0$C$L0
 10
3.796108
 20
0.727264
 11
3.704484
 21
0.635641
  0
LINE
  8
Layer0$C$L0
 10
3.704484
 20
0.649783
 11
3.781965
 21
0.727264
  0
LINE
  8
Layer0$C$L0
 10
3.767823
 20
0.727264
 11
3.704484
 21
0.663925
  0
LINE
  8
Layer0$C$L0
 10
3.704484
 20
0.678067
 11
3.753681
 21
0.727264
  0
LINE
  8
Layer0$C$L0
 10
3.739539
 20
0.727264
 11
3.704484
 21
0.692209
  0
LINE
  8
Layer0$C$L0
 10
3.704484
 20
0.706351
 11
3.725397
 21
0.727264
  0
LINE
  8
Layer0$C$L0
 10
3.711255
 20
0.727264
 11
3.704484
 21
0.720493
  0
ENDBLK
  8
Layer0$C$L0
  0
BLOCK
  8
Layer0$C$L0
  2
*X3
 70
     1
 10
0.000000
 20
0.000000
  0
LINE
  8
Layer0$C$L0
 10
0.828653
 20
0.404389
 11
0.831420
 21
0.407156
  0
LINE
  8
Layer0$C$L0
 10
0.831403
 20
0.421282
 11
0.819820
 21
0.409698
  0
LINE
  8
Layer0$C$L0
 10
0.810411
 20
0.414431
 11
0.831387
 21
0.435407
  0
LINE
  8
Layer0$C$L0
 10
0.831371
 20
0.449533
 11
0.800544
 21
0.418706
  0
LINE
  8
Layer0$C$L0
 10
0.790323
 20
0.422628
 11
0.831355
 21
0.463659
  0
LINE
  8
Layer0$C$L0
 10
0.824938
 20
0.471384
 11
0.779767
 21
0.426213
  0
LINE
  8
Layer0$C$L0
 10
0.768887
 20
0.429476
 11
0.810297
 21
0.470886
  0
LINE
  8
Layer0$C$L0
 10
0.795657
 20
0.470388
 11
0.757709
 21
0.432440
  0
LINE
  8
Layer0$C$L0
 10
0.746285
 20
0.435158
 11
0.781016
 21
0.469889
  0
LINE
  8
Layer0$C$L0
 10
0.766376
 20
0.469391
 11
0.734662
 21
0.437677
  0
LINE
  8
Layer0$C$L0
 10
0.722875
 20
0.440032
 11
0.751736
 21
0.468893
  0
LINE
  8
Layer0$C$L0
 10
0.737095
 20
0.468395
 11
0.710956
 21
0.442256
  0
LINE
  8
Layer0$C$L0
 10
0.698925
 20
0.444366
 11
0.722455
 21
0.467896
  0
LINE
  8
Layer0$C$L0
 10
0.707814
 20
0.467398
 11
0.686797
 21
0.446381
  0
LINE
  8
Layer0$C$L0
 10
0.674584
 20
0.448310
 11
0.693174
 21
0.466900
  0
LINE
  8
Layer0$C$L0
 10
0.683959
 20
0.471827
 11
0.662289
 21
0.450157
  0
LINE
  8
Layer0$C$L0
 10
0.649916
 20
0.451926
 11
0.679090
 21
0.481100
  0
LINE
  8
Layer0$C$L0
 10
0.672681
 20
0.488833
 11
0.637474
 21
0.453626
  0
LINE
  8
Layer0$C$L0
 10
0.624985
 20
0.455280
 11
0.664796
 21
0.495090
  0
LINE
  8
Layer0$C$L0
 10
0.655531
 20
0.499968
 11
0.612476
 21
0.456912
  0
LINE
  8
Layer0$C$L0
 10
0.599985
 20
0.458564
 11
0.645016
 21
0.503594
  0
LINE
  8
Layer0$C$L0
 10
0.633432
 20
0.506152
 11
0.587635
 21
0.460356
  0
LINE
  8
Layer0$C$L0
 10
0.575584
 20
0.462447
 11
0.620900
 21
0.507763
  0
LINE
  8
Layer0$C$L0
 10
0.607508
 20
0.508513
 11
0.564109
 21
0.465114
  0
LINE
  8
Layer0$C$L0
 10
0.553669
 20
0.468816
 11
0.593302
 21
0.508449
  0
LINE
  8
Layer0$C$L0
 10
0.577937
 20
0.507227
 11
0.545069
 21
0.474358
  0
LINE
  8
Layer0$C$L0
 10
0.540659
 20
0.484090
 11
0.559161
 21
0.502593
  0
ENDBLK
  8
Layer0$C$L0
  0
BLOCK
  8
Layer0$C$L0
  2
*X4
 70
     1
 10
0.000000
 20
0.000000
  0
LINE
  8
Layer0$C$L0
 10
0.826519
 20
0.515392
 11
0.831290
 21
0.520163
  0
LINE
  8
Layer0$C$L0
 10
0.831274
 20
0.534289
 11
0.819562
 21
0.522578
  0
LINE
  8
Layer0$C$L0
 10
0.811924
 20
0.529082
 11
0.831258
 21
0.548415
  0
LINE
  8
Layer0$C$L0
 10
0.831242
 20
0.562541
 11
0.803572
 21
0.534872
  0
LINE
  8
Layer0$C$L0
 10
0.794575
 20
0.540016
 11
0.831225
 21
0.576667
  0
LINE
  8
Layer0$C$L0
 10
0.831209
 20
0.590793
 11
0.784996
 21
0.544579
  0
LINE
  8
Layer0$C$L0
 10
0.774913
 20
0.548638
 11
0.831193
 21
0.604919
  0
LINE
  8
Layer0$C$L0
 10
0.831177
 20
0.619045
 11
0.764366
 21
0.552234
  0
LINE
  8
Layer0$C$L0
 10
0.753389
 20
0.555400
 11
0.831161
 21
0.633171
  0
LINE
  8
Layer0$C$L0
 10
0.831144
 20
0.647297
 11
0.742016
 21
0.558168
  0
LINE
  8
Layer0$C$L0
 10
0.730275
 20
0.560570
 11
0.831128
 21
0.661423
  0
LINE
  8
Layer0$C$L0
 10
0.831112
 20
0.675549
 11
0.718196
 21
0.562633
  0
LINE
  8
Layer0$C$L0
 10
0.705800
 20
0.564379
 11
0.831096
 21
0.689675
  0
LINE
  8
Layer0$C$L0
 10
0.831080
 20
0.703801
 11
0.693109
 21
0.565829
  0
LINE
  8
Layer0$C$L0
 10
0.680142
 20
0.567005
 11
0.831064
 21
0.717926
  0
LINE
  8
Layer0$C$L0
 10
0.831047
 20
0.732052
 11
0.666912
 21
0.567917
  0
LINE
  8
Layer0$C$L0
 10
0.653434
 20
0.568581
 11
0.831031
 21
0.746178
  0
LINE
  8
Layer0$C$L0
 10
0.831015
 20
0.760304
 11
0.639723
 21
0.569012
  0
LINE
  8
Layer0$C$L0
 10
0.625798
 20
0.569229
 11
0.830999
 21
0.774430
  0
LINE
  8
Layer0$C$L0
 10
0.830983
 20
0.788556
 11
0.611677
 21
0.569250
  0
LINE
  8
Layer0$C$L0
 10
0.597362
 20
0.569078
 11
0.830966
 21
0.802682
  0
LINE
  8
Layer0$C$L0
 10
0.830950
 20
0.816808
 11
0.582830
 21
0.568688
  0
LINE
  8
Layer0$C$L0
 10
0.568051
 20
0.568051
 11
0.830934
 21
0.830934
  0
LINE
  8
Layer0$C$L0
 10
0.817850
 20
0.831992
 11
0.552974
 21
0.567116
  0
LINE
  8
Layer0$C$L0
 10
0.537525
 20
0.565809
 11
0.803708
 21
0.831992
  0
LINE
  8
Layer0$C$L0
 10
0.789566
 20
0.831992
 11
0.521588
 21
0.564015
  0
LINE
  8
Layer0$C$L0
 10
0.504961
 20
0.561530
 11
0.775423
 21
0.831992
  0
LINE
  8
Layer0$C$L0
 10
0.761281
 20
0.831992
 11
0.487322
 21
0.558032
  0
LINE
  8
Layer0$C$L0
 10
0.468119
 20
0.552972
 11
0.747139
 21
0.831992
  0
LINE
  8
Layer0$C$L0
 10
0.732997
 20
0.831992
 11
0.446304
 21
0.545298
  0
LINE
  8
Layer0$C$L0
 10
0.388165
 20
0.501302
 11
0.390226
 21
0.503363
  0
LINE
  8
Layer0$C$L0
 10
0.718855
 20
0.831992
 11
0.416351
 21
0.529488
  0
LINE
  8
Layer0$C$L0
 10
0.704713
 20
0.831992
 11
0.388165
 21
0.515444
  0
LINE
  8
Layer0$C$L0
 10
0.690571
 20
0.831992
 11
0.388165
 21
0.529586
  0
LINE
  8
Layer0$C$L0
 10
0.676429
 20
0.831992
 11
0.388165
 21
0.543728
  0
LINE
  8
Layer0$C$L0
 10
0.662286
 20
0.831992
 11
0.388165
 21
0.557871
  0
LINE
  8
Layer0$C$L0
 10
0.648144
 20
0.831992
 11
0.380069
 21
0.563917
  0
LINE
  8
Layer0$C$L0
 10
0.634002
 20
0.831992
 11
0.365927
 21
0.563917
  0
LINE
  8
Layer0$C$L0
 10
0.619860
 20
0.831992
 11
0.351785
 21
0.563917
  0
LINE
  8
Layer0$C$L0
 10
0.605718
 20
0.831992
 11
0.337643
 21
0.563917
  0
LINE
  8
Layer0$C$L0
 10
0.591576
 20
0.831992
 11
0.323501
 21
0.563917
  0
LINE
  8
Layer0$C$L0
 10
0.577434
 20
0.831992
 11
0.309359
 21
0.563917
  0
LINE
  8
Layer0$C$L0
 10
0.563291
 20
0.831992
 11
0.295216
 21
0.563917
  0
LINE
  8
Layer0$C$L0
 10
0.549149
 20
0.831992
 11
0.281074
 21
0.563917
  0
LINE
  8
Layer0$C$L0
 10
0.535007
 20
0.831992
 11
0.266932
 21
0.563917
  0
LINE
  8
Layer0$C$L0
 10
0.520865
 20
0.831992
 11
0.252790
 21
0.563917
  0
LINE
  8
Layer0$C$L0
 10
0.506723
 20
0.831992
 11
0.238648
 21
0.563917
  0
LINE
  8
Layer0$C$L0
 10
0.492581
 20
0.831992
 11
0.224506
 21
0.563917
  0
LINE
  8
Layer0$C$L0
 10
0.478439
 20
0.831992
 11
0.210364
 21
0.563917
  0
LINE
  8
Layer0$C$L0
 10
0.464296
 20
0.831992
 11
0.196222
 21
0.563917
  0
LINE
  8
Layer0$C$L0
 10
0.450154
 20
0.831992
 11
0.182079
 21
0.563917
  0
LINE
  8
Layer0$C$L0
 10
0.436012
 20
0.831992
 11
0.167937
 21
0.563917
  0
LINE
  8
Layer0$C$L0
 10
0.421870
 20
0.831992
 11
0.153795
 21
0.563917
  0
LINE
  8
Layer0$C$L0
 10
0.407728
 20
0.831992
 11
0.139653
 21
0.563917
  0
LINE
  8
Layer0$C$L0
 10
0.393586
 20
0.831992
 11
0.125511
 21
0.563917
  0
LINE
  8
Layer0$C$L0
 10
0.379444
 20
0.831992
 11
0.111369
 21
0.563917
  0
LINE
  8
Layer0$C$L0
 10
0.365302
 20
0.831992
 11
9.722657E-02
 21
0.563917
  0
LINE
  8
Layer0$C$L0
 10
0.351159
 20
0.831992
 11
8.308443E-02
 21
0.563917
  0
LINE
  8
Layer0$C$L0
 10
0.337017
 20
0.831992
 11
6.894229E-02
 21
0.563917
  0
LINE
  8
Layer0$C$L0
 10
0.322875
 20
0.831992
 11
5.480016E-02
 21
0.563917
  0
LINE
  8
Layer0$C$L0
 10
0.308733
 20
0.831992
 11
4.065802E-02
 21
0.563917
  0
LINE
  8
Layer0$C$L0
 10
0.294591
 20
0.831992
 11
2.651589E-02
 21
0.563917
  0
LINE
  8
Layer0$C$L0
 10
0.280449
 20
0.831992
 11
1.237375E-02
 21
0.563917
  0
LINE
  8
Layer0$C$L0
 10
0.266307
 20
0.831992
 11
-2.839878E-04
 21
0.565401
  0
LINE
  8
Layer0$C$L0
 10
0.252164
 20
0.831992
 11
-2.910964E-04
 21
0.579536
  0
LINE
  8
Layer0$C$L0
 10
0.238022
 20
0.831992
 11
-2.982049E-04
 21
0.593672
  0
LINE
  8
Layer0$C$L0
 10
0.223880
 20
0.831992
 11
-3.053135E-04
 21
0.607807
  0
LINE
  8
Layer0$C$L0
 10
0.209738
 20
0.831992
 11
-3.124221E-04
 21
0.621942
  0
LINE
  8
Layer0$C$L0
 10
0.195596
 20
0.831992
 11
-3.195306E-04
 21
0.636077
  0
LINE
  8
Layer0$C$L0
 10
0.181454
 20
0.831992
 11
-3.266392E-04
 21
0.650212
  0
LINE
  8
Layer0$C$L0
 10
0.167312
 20
0.831992
 11
-3.337478E-04
 21
0.664347
  0
LINE
  8
Layer0$C$L0
 10
0.153170
 20
0.831992
 11
-3.408563E-04
 21
0.678482
  0
LINE
  8
Layer0$C$L0
 10
0.139027
 20
0.831992
 11
-3.479649E-04
 21
0.692617
  0
LINE
  8
Layer0$C$L0
 10
0.124885
 20
0.831992
 11
-3.550735E-04
 21
0.706752
  0
LINE
  8
Layer0$C$L0
 10
0.110743
 20
0.831992
 11
-3.621821E-04
 21
0.720887
  0
LINE
  8
Layer0$C$L0
 10
9.638471E-02
 20
0.831776
 11
-1.499182E-04
 21
0.735241
  0
LINE
  8
Layer0$C$L0
 10
7.987581E-02
 20
0.829409
 11
2.217033E-03
 21
0.751750
  0
LINE
  8
Layer0$C$L0
 10
5.808144E-02
 20
0.821757
 11
9.868835E-03
 21
0.773544
  0
ENDBLK
  8
Layer0$C$L0
  0
BLOCK
  8
Layer0$C$L0
  2
*X5
 70
     1
 10
0.000000
 20
0.000000
  0
LINE
  8
Layer0$C$L0
 10
0.774478
 20
1.080228E-02
 11
0.820966
 21
5.729027E-02
  0
LINE
  8
Layer0$C$L0
 10
0.829011
 20
7.947817E-02
 11
0.752290
 21
2.756651E-03
  0
LINE
  8
Layer0$C$L0
 10
0.735646
 20
2.550570E-04
 11
0.831513
 21
9.612186E-02
  0
LINE
  8
Layer0$C$L0
 10
0.831760
 20
0.110511
 11
0.721249
 21
2.220446E-16
  0
LINE
  8
Layer0$C$L0
 10
0.707107
 20
2.220446E-16
 11
0.831743
 21
0.124637
  0
LINE
  8
Layer0$C$L0
 10
0.831727
 20
0.138763
 11
0.692965
 21
2.775558E-16
  0
LINE
  8
Layer0$C$L0
 10
0.678823
 20
2.220446E-16
 11
0.831711
 21
0.152888
  0
LINE
  8
Layer0$C$L0
 10
0.831695
 20
0.167014
 11
0.664680
 21
2.775558E-16
  0
LINE
  8
Layer0$C$L0
 10
0.650538
 20
2.220446E-16
 11
0.831679
 21
0.181140
  0
LINE
  8
Layer0$C$L0
 10
0.831662
 20
0.195266
 11
0.636396
 21
2.220446E-16
  0
LINE
  8
Layer0$C$L0
 10
0.622254
 20
2.220446E-16
 11
0.831646
 21
0.209392
  0
LINE
  8
Layer0$C$L0
 10
0.831630
 20
0.223518
 11
0.608112
 21
2.220446E-16
  0
LINE
  8
Layer0$C$L0
 10
0.593970
 20
2.220446E-16
 11
0.831614
 21
0.237644
  0
LINE
  8
Layer0$C$L0
 10
0.831598
 20
0.251770
 11
0.579828
 21
2.220446E-16
  0
LINE
  8
Layer0$C$L0
 10
0.565685
 20
1.665335E-16
 11
0.831581
 21
0.265896
  0
LINE
  8
Layer0$C$L0
 10
0.831565
 20
0.280022
 11
0.551543
 21
2.220446E-16
  0
LINE
  8
Layer0$C$L0
 10
0.537401
 20
1.665335E-16
 11
0.799398
 21
0.261997
  0
LINE
  8
Layer0$C$L0
 10
0.775868
 20
0.252609
 11
0.523259
 21
2.220446E-16
  0
LINE
  8
Layer0$C$L0
 10
0.509117
 20
1.665335E-16
 11
0.755684
 21
0.246567
  0
LINE
  8
Layer0$C$L0
 10
0.737297
 20
0.242322
 11
0.494975
 21
1.942890E-16
  0
LINE
  8
Layer0$C$L0
 10
0.480833
 20
1.942890E-16
 11
0.720071
 21
0.239238
  0
LINE
  8
Layer0$C$L0
 10
0.703660
 20
0.236969
 11
0.466690
 21
1.942890E-16
  0
LINE
  8
Layer0$C$L0
 10
0.452548
 20
1.665335E-16
 11
0.687849
 21
0.235300
  0
LINE
  8
Layer0$C$L0
 10
0.672498
 20
0.234091
 11
0.438406
 21
1.665335E-16
  0
LINE
  8
Layer0$C$L0
 10
0.424264
 20
1.665335E-16
 11
0.657526
 21
0.233262
  0
LINE
  8
Layer0$C$L0
 10
0.642870
 20
0.232748
 11
0.410122
 21
1.665335E-16
  0
LINE
  8
Layer0$C$L0
 10
0.395980
 20
1.665335E-16
 11
0.628472
 21
0.232492
  0
LINE
  8
Layer0$C$L0
 10
0.614284
 20
0.232446
 11
0.381838
 21
1.942890E-16
  0
LINE
  8
Layer0$C$L0
 10
0.367696
 20
1.665335E-16
 11
0.600279
 21
0.232583
  0
LINE
  8
Layer0$C$L0
 10
0.698925
 20
0.331229
 11
0.670736
 21
0.303041
  0
LINE
  8
Layer0$C$L0
 10
0.586454
 20
0.232900
 11
0.353553
 21
1.665335E-16
  0
LINE
  8
Layer0$C$L0
 10
0.694832
 20
0.341279
 11
0.652051
 21
0.298497
  0
LINE
  8
Layer0$C$L0
 10
0.572808
 20
0.233397
 11
0.339411
 21
1.665335E-16
  0
LINE
  8
Layer0$C$L0
 10
0.687522
 20
0.348110
 11
0.636267
 21
0.296856
  0
LINE
  8
Layer0$C$L0
 10
0.559352
 20
0.234083
 11
0.325269
 21
1.665335E-16
  0
LINE
  8
Layer0$C$L0
 10
0.678601
 20
0.353332
 11
0.621724
 21
0.296455
  0
LINE
  8
Layer0$C$L0
 10
0.546104
 20
0.234977
 11
0.311127
 21
1.665335E-16
  0
LINE
  8
Layer0$C$L0
 10
0.668387
 20
0.357260
 11
0.608008
 21
0.296881
  0
LINE
  8
Layer0$C$L0
 10
0.533080
 20
0.236096
 11
0.296985
 21
1.387779E-16
  0
LINE
  8
Layer0$C$L0
 10
0.657320
 20
0.360335
 11
0.595116
 21
0.298132
  0
LINE
  8
Layer0$C$L0
 10
0.520300
 20
0.237458
 11
0.282843
 21
1.387779E-16
  0
LINE
  8
Layer0$C$L0
 10
0.645792
 20
0.362949
 11
0.583081
 21
0.300238
  0
LINE
  8
Layer0$C$L0
 10
0.507779
 20
0.239079
 11
0.268701
 21
1.387779E-16
  0
LINE
  8
Layer0$C$L0
 10
0.633908
 20
0.365208
 11
0.571919
 21
0.303218
  0
LINE
  8
Layer0$C$L0
 10
0.495543
 20
0.240985
 11
0.254558
 21
1.387779E-16
  0
LINE
  8
Layer0$C$L0
 10
0.621771
 20
0.367213
 11
0.561640
 21
0.307082
  0
LINE
  8
Layer0$C$L0
 10
0.483622
 20
0.243205
 11
0.240416
 21
1.249001E-16
  0
LINE
  8
Layer0$C$L0
 10
0.609463
 20
0.369047
 11
0.552301
 21
0.311884
  0
LINE
  8
Layer0$C$L0
 10
0.472044
 20
0.245770
 11
0.226274
 21
1.387779E-16
  0
LINE
  8
Layer0$C$L0
 10
0.597058
 20
0.370784
 11
0.544015
 21
0.317741
  0
LINE
  8
Layer0$C$L0
 10
0.460838
 20
0.248706
 11
0.212132
 21
1.387779E-16
  0
LINE
  8
Layer0$C$L0
 10
0.584636
 20
0.372504
 11
0.536922
 21
0.324790
  0
LINE
  8
Layer0$C$L0
 10
0.450043
 20
0.252053
 11
0.197990
 21
1.249001E-16
  0
LINE
  8
Layer0$C$L0
 10
0.572253
 20
0.374264
 11
0.531185
 21
0.333196
  0
LINE
  8
Layer0$C$L0
 10
0.439750
 20
0.255903
 11
0.183848
 21
1.249001E-16
  0
LINE
  8
Layer0$C$L0
 10
0.559950
 20
0.376103
 11
0.526770
 21
0.342922
  0
LINE
  8
Layer0$C$L0
 10
0.430021
 20
0.260316
 11
0.169706
 21
1.110223E-16
  0
LINE
  8
Layer0$C$L0
 10
0.547763
 20
0.378057
 11
0.521339
 21
0.351633
  0
LINE
  8
Layer0$C$L0
 10
0.420813
 20
0.265250
 11
0.155563
 21
9.714451E-17
  0
LINE
  8
Layer0$C$L0
 10
0.535718
 20
0.380154
 11
0.506661
 21
0.351098
  0
LINE
  8
Layer0$C$L0
 10
0.412077
 20
0.270656
 11
0.141421
 21
8.326673E-17
  0
LINE
  8
Layer0$C$L0
 10
0.523826
 20
0.382405
 11
0.491984
 21
0.350563
  0
LINE
  8
Layer0$C$L0
 10
0.403817
 20
0.276538
 11
0.127279
 21
6.938894E-17
  0
LINE
  8
Layer0$C$L0
 10
0.512094
 20
0.384815
 11
0.477306
 21
0.350027
  0
LINE
  8
Layer0$C$L0
 10
0.396047
 20
0.282910
 11
0.113137
 21
5.551115E-17
  0
LINE
  8
Layer0$C$L0
 10
0.500529
 20
0.387392
 11
0.462629
 21
0.349492
  0
LINE
  8
Layer0$C$L0
 10
0.388780
 20
0.289785
 11
9.899495E-02
 21
4.163336E-17
  0
LINE
  8
Layer0$C$L0
 10
0.489154
 20
0.390159
 11
0.447952
 21
0.348957
  0
LINE
  8
Layer0$C$L0
 10
0.382053
 20
0.297200
 11
8.485281E-02
 21
3.469447E-17
  0
LINE
  8
Layer0$C$L0
 10
0.477992
 20
0.393139
 11
0.433274
 21
0.348421
  0
LINE
  8
Layer0$C$L0
 10
0.375954
 20
0.305243
 11
7.071068E-02
 21
3.469447E-17
  0
LINE
  8
Layer0$C$L0
 10
0.467070
 20
0.396359
 11
0.418597
 21
0.347886
  0
LINE
  8
Layer0$C$L0
 10
0.370592
 20
0.314024
 11
5.656854E-02
 21
3.122502E-17
  0
LINE
  8
Layer0$C$L0
 10
0.456439
 20
0.399870
 11
0.403919
 21
0.347351
  0
LINE
  8
Layer0$C$L0
 10
0.366105
 20
0.323678
 11
4.242641E-02
 21
2.775558E-17
  0
LINE
  8
Layer0$C$L0
 10
0.446143
 20
0.403717
 11
0.389242
 21
0.346815
  0
LINE
  8
Layer0$C$L0
 10
0.362566
 20
0.334282
 11
2.828427E-02
 21
2.602085E-17
  0
LINE
  8
Layer0$C$L0
 10
0.436232
 20
0.407948
 11
0.374564
 21
0.346280
  0
LINE
  8
Layer0$C$L0
 10
0.426750
 20
0.412608
 11
1.414214E-02
 21
2.168404E-17
  0
LINE
  8
Layer0$C$L0
 10
0.417760
 20
0.417760
 11
-9.860761E-32
 21
4.366820E-16
  0
LINE
  8
Layer0$C$L0
 10
0.409364
 20
0.423506
 11
-7.091582E-06
 21
1.413504E-02
  0
LINE
  8
Layer0$C$L0
 10
0.344346
 20
0.372630
 11
-1.418316E-05
 21
2.827009E-02
  0
LINE
  8
Layer0$C$L0
 10
0.401660
 20
0.429945
 11
0.354232
 21
0.382516
  0
LINE
  8
Layer0$C$L0
 10
0.330204
 20
0.372630
 11
-2.127475E-05
 21
4.240513E-02
  0
LINE
  8
Layer0$C$L0
 10
0.394766
 20
0.437192
 11
0.354232
 21
0.396658
  0
LINE
  8
Layer0$C$L0
 10
0.316061
 20
0.372630
 11
-2.836633E-05
 21
5.654018E-02
  0
LINE
  8
Layer0$C$L0
 10
0.388871
 20
0.445440
 11
0.354232
 21
0.410801
  0
LINE
  8
Layer0$C$L0
 10
0.301919
 20
0.372630
 11
-3.545791E-05
 21
7.067522E-02
  0
LINE
  8
Layer0$C$L0
 10
0.384309
 20
0.455020
 11
0.354232
 21
0.424943
  0
LINE
  8
Layer0$C$L0
 10
0.155608
 20
0.240461
 11
-4.254949E-05
 21
8.481026E-02
  0
LINE
  8
Layer0$C$L0
 10
0.287777
 20
0.372630
 11
0.156106
 21
0.240959
  0
LINE
  8
Layer0$C$L0
 10
0.381506
 20
0.466359
 11
0.353072
 21
0.437925
  0
LINE
  8
Layer0$C$L0
 10
0.141466
 20
0.240461
 11
-4.964108E-05
 21
9.894530E-02
  0
LINE
  8
Layer0$C$L0
 10
0.273635
 20
0.372630
 11
0.156106
 21
0.255101
  0
LINE
  8
Layer0$C$L0
 10
0.381482
 20
0.480477
 11
0.338930
 21
0.437925
  0
LINE
  8
Layer0$C$L0
 10
0.127324
 20
0.240461
 11
-5.673266E-05
 21
0.113080
  0
LINE
  8
Layer0$C$L0
 10
0.259493
 20
0.372630
 11
0.156106
 21
0.269243
  0
LINE
  8
Layer0$C$L0
 10
0.381269
 20
0.494406
 11
0.324788
 21
0.437925
  0
LINE
  8
Layer0$C$L0
 10
0.113182
 20
0.240461
 11
-6.382424E-05
 21
0.127215
  0
LINE
  8
Layer0$C$L0
 10
0.245351
 20
0.372630
 11
0.156106
 21
0.283385
  0
LINE
  8
Layer0$C$L0
 10
0.367127
 20
0.494406
 11
0.310646
 21
0.437925
  0
LINE
  8
Layer0$C$L0
 10
9.903964E-02
 20
0.240461
 11
-7.091582E-05
 21
0.141350
  0
LINE
  8
Layer0$C$L0
 10
0.231209
 20
0.372630
 11
0.156106
 21
0.297527
  0
LINE
  8
Layer0$C$L0
 10
0.352985
 20
0.494406
 11
0.296504
 21
0.437925
  0
LINE
  8
Layer0$C$L0
 10
8.489750E-02
 20
0.240461
 11
-7.800740E-05
 21
0.155485
  0
LINE
  8
Layer0$C$L0
 10
0.217067
 20
0.372630
 11
0.156106
 21
0.311669
  0
LINE
  8
Layer0$C$L0
 10
0.338842
 20
0.494406
 11
0.282361
 21
0.437925
  0
LINE
  8
Layer0$C$L0
 10
7.075536E-02
 20
0.240461
 11
-8.509899E-05
 21
0.169621
  0
LINE
  8
Layer0$C$L0
 10
0.202924
 20
0.372630
 11
0.156106
 21
0.325812
  0
LINE
  8
Layer0$C$L0
 10
0.324700
 20
0.494406
 11
0.268219
 21
0.437925
  0
LINE
  8
Layer0$C$L0
 10
5.661323E-02
 20
0.240461
 11
-9.219057E-05
 21
0.183756
  0
LINE
  8
Layer0$C$L0
 10
0.188782
 20
0.372630
 11
0.156106
 21
0.339954
  0
LINE
  8
Layer0$C$L0
 10
0.310558
 20
0.494406
 11
0.254077
 21
0.437925
  0
LINE
  8
Layer0$C$L0
 10
4.247109E-02
 20
0.240461
 11
-9.928215E-05
 21
0.197891
  0
LINE
  8
Layer0$C$L0
 10
0.174640
 20
0.372630
 11
0.156106
 21
0.354096
  0
LINE
  8
Layer0$C$L0
 10
0.296416
 20
0.494406
 11
0.239935
 21
0.437925
  0
LINE
  8
Layer0$C$L0
 10
2.832896E-02
 20
0.240461
 11
-1.063737E-04
 21
0.212026
  0
LINE
  8
Layer0$C$L0
 10
0.160498
 20
0.372630
 11
0.156106
 21
0.368238
  0
LINE
  8
Layer0$C$L0
 10
0.282274
 20
0.494406
 11
0.225793
 21
0.437925
  0
LINE
  8
Layer0$C$L0
 10
1.418682E-02
 20
0.240461
 11
-1.134653E-04
 21
0.226161
  0
LINE
  8
Layer0$C$L0
 10
0.268132
 20
0.494406
 11
0.211651
 21
0.437925
  0
LINE
  8
Layer0$C$L0
 10
0.253990
 20
0.494406
 11
0.197509
 21
0.437925
  0
LINE
  8
Layer0$C$L0
 10
0.239847
 20
0.494406
 11
0.183367
 21
0.437925
  0
LINE
  8
Layer0$C$L0
 10
0.225705
 20
0.494406
 11
0.169224
 21
0.437925
  0
LINE
  8
Layer0$C$L0
 10
0.211563
 20
0.494406
 11
0.156106
 21
0.438949
  0
LINE
  8
Layer0$C$L0
 10
0.197421
 20
0.494406
 11
0.156106
 21
0.453091
  0
LINE
  8
Layer0$C$L0
 10
0.183279
 20
0.494406
 11
0.156106
 21
0.467233
  0
LINE
  8
Layer0$C$L0
 10
0.169137
 20
0.494406
 11
0.156106
 21
0.481375
  0
ENDBLK
  8
Layer0$C$L0
  0
BLOCK
  8
Layer140$C$L140
  2
ASIZE-OUTLINE-LASER
 70
     0
 10
0.000000
 20
0.000000
  0
INSERT
  8
Layer0$C$L0
  2
DRAWING_HIST_BLOCK
 10
4.350000
 20
3.712500
  0
INSERT
  8
Layer0$C$L0
  2
LOGO
 10
-4.855631
 20
-2.658703
 41
0.400000
 42
0.400000
 43
0.400000
  0
TEXT
  8
Layer10$C$L10
 10
2.167001
 20
-2.607133
 40
8.000000E-02
  1
NOT TO BE USED FOR PRODUCTION
 41
0.897322
 72
     5
 11
4.177001
 21
-2.607133
  0
TEXT
  8
Layer10$C$L10
 10
2.552001
 20
-2.487133
 40
8.000000E-02
  1
OUTLINE DIMENSIONS
 41
0.911765
 72
     5
 11
3.792001
 21
-2.487133
  0
TEXT
  8
Layer0$C$L0
 10
-2.767811
 20
-2.624779
 40
6.000000E-02
  1
NEWBURYPORT,MA 01950
 72
     5
 11
-1.583855
 21
-2.624779
  0
TEXT
  8
Layer0$C$L0
 10
-2.770301
 20
-2.529800
 40
6.000000E-02
  1
374 MERRIMAC STREET
 72
     5
 11
-1.646345
 21
-2.529800
  0
TEXT
  8
Layer0$C$L0
 10
-2.772790
 20
-2.434821
 40
6.000000E-02
  1
FERRAZ SHAWMUT INC.
 72
     5
 11
-1.648834
 21
-2.434821
  0
POINT
  8
Layer0$C$L0
 10
-4.900000
 20
-2.287500
  0
POINT
  8
Layer0$C$L0
 10
-4.900000
 20
-2.287500
  0
TEXT
  8
Layer10$C$L10
 10
-3.065803
 20
-3.247500
 40
8.000001E-02
  1
DATE:
 41
0.968750
 72
     5
 11
-2.755803
 21
-3.247500
  0
TEXT
  8
Layer10$C$L10
 10
-3.065803
 20
-3.067500
 40
8.000001E-02
  1
SIGN:
 41
0.968750
 72
     5
 11
-2.755803
 21
-3.067500
  0
TEXT
  8
Layer10$C$L10
 10
-4.870124
 20
-3.067501
 40
8.000001E-02
  1
SIGN:
 41
0.968750
 72
     5
 11
-4.560124
 21
-3.067501
  0
TEXT
  8
Layer10$C$L10
 10
-4.870124
 20
-3.247500
 40
8.000001E-02
  1
DATE:
 41
0.968750
 72
     5
 11
-4.560124
 21
-3.247500
  0
LINE
  8
Layer0$C$L0
 10
3.477350
 20
3.813368
 11
4.400001
 21
3.813368
  0
TEXT
  8
Layer0$C$L0
 10
2.376839
 20
3.813577
 40
0.100000
  1
CONTROL No:
 72
     5
 11
3.450099
 21
3.813577
  0
TEXT
  8
Layer10$C$L10
 10
-2.864303
 20
-2.827502
 40
8.000000E-02
  1
%%uDESIGN ENGINEER%%u
 72
     5
 11
-1.685695
 21
-2.827502
  0
TEXT
  8
Layer10$C$L10
 10
-4.614303
 20
-2.827502
 40
8.000000E-02
  1
%%uPRODUCT MANAGER%%u
 72
     5
 11
-3.435695
 21
-2.827502
  0
LINE
  8
Layer0$C$L0
 10
-1.399999
 20
-2.707502
 11
-4.899999
 21
-2.707502
  0
LINE
  8
Layer0$C$L0
 10
-3.149999
 20
-3.287500
 11
-3.149999
 21
-2.707502
  0
LINE
  8
Layer0$C$L0
 10
2.000002
 20
-3.287500
 11
2.000002
 21
-2.287500
  0
LINE
  8
Layer0$C$L0
 10
2.000002
 20
-2.766401
 11
4.350000
 21
-2.766401
  0
LINE
  8
Layer0$C$L0
 10
4.350000
 20
-2.287500
 11
-4.899999
 21
-2.287500
  0
LINE
  8
Layer0$C$L0
 10
-1.399999
 20
-3.287500
 11
-1.399999
 21
-2.287500
  0
LINE
  8
Layer2$C$L2
 10
-4.9499995232
 20
3.7624997616
 11
-4.9499995232
 21
-3.3375000000
  0
LINE
  8
Layer2$C$L2
 10
4.4000004768
 20
3.7624997616
 11
4.4000004768
 21
-3.3375000000
  0
LINE
  8
Layer2$C$L2
 10
4.4000004768
 20
-3.3375000000
 11
-4.9499995232
 21
-3.3375000000
  0
LINE
  8
Layer2$C$L2
 10
4.4000004768
 20
3.7624997616
 11
-4.9499995232
 21
3.7624997616
  0
LINE
  8
Layer2$C$L2
 10
-4.8999995232
 20
3.7124997616
 11
-4.8999995232
 21
-3.2875000000
  0
LINE
  8
Layer2$C$L2
 10
4.3500004768
 20
3.7124997616
 11
-4.8999995232
 21
3.7124997616
  0
LINE
  8
Layer2$C$L2
 10
4.3500004768
 20
3.7124997616
 11
4.3500004768
 21
-3.2875000000
  0
LINE
  8
Layer2$C$L2
 10
4.3500004768
 20
-3.2875000000
 11
-4.8999995232
 21
-3.2875000000
  0
ENDBLK
  8
Layer2$C$L2
  0
BLOCK
  8
Layer0$C$L0
  2
DRAWING_HIST_BLOCK
 70
     0
 10
0.000000
 20
0.000000
  0
POINT
  8
Layer0$C$L0
 10
0.000000
 20
0.000000
  0
LINE
  8
Layer0$C$L0
 10
-3.750000
 20
-0.125000
 11
0.000000
 21
-0.125000
  0
LINE
  8
Layer0$C$L0
 10
-3.750000
 20
-0.125000
 11
-3.750000
 21
0.000000
  0
LINE
  8
Layer0$C$L0
 10
-3.480000
 20
-0.125000
 11
-3.480000
 21
0.000000
  0
LINE
  8
Layer0$C$L0
 10
-2.920000
 20
-0.125000
 11
-2.920000
 21
0.000000
  0
LINE
  8
Layer0$C$L0
 10
-2.560000
 20
-0.125000
 11
-2.560000
 21
0.000000
  0
LINE
  8
Layer0$C$L0
 10
-0.660000
 20
-0.125000
 11
-0.660000
 21
0.000000
  0
LINE
  8
Layer0$C$L0
 10
-0.440000
 20
-0.125000
 11
-0.440000
 21
0.000000
  0
LINE
  8
Layer0$C$L0
 10
-0.2199999988
 20
-0.1250000000
 11
-0.2199999988
 21
0.0000000000
  0
TEXT
  8
Layer0$C$L0
 10
-3.710165
 20
-8.842492E-02
 40
6.200000E-02
  1
REV
 72
     5
 11
-3.540744
 21
-8.842492E-02
  0
TEXT
  8
Layer0$C$L0
 10
-3.395861
 20
-8.842492E-02
 40
6.200000E-02
  1
DATE
 72
     5
 11
-3.164439
 21
-8.842492E-02
  0
TEXT
  8
Layer0$C$L0
 10
-2.837097
 20
-8.842492E-02
 40
6.200000E-02
  1
ECO
 72
     5
 11
-2.667676
 21
-8.842492E-02
  0
TEXT
  8
Layer0$C$L0
 10
-2.048841
 20
-8.842492E-02
 40
6.200000E-02
  1
DESCRIPTION
 72
     5
 11
-1.383420
 21
-8.842492E-02
  0
TEXT
  8
Layer0$C$L0
 10
-0.599460
 20
-9.645067E-02
 40
6.200000E-02
  1
BY
 72
     5
 11
-0.492038
 21
-9.645067E-02
  0
TEXT
  8
Layer0$C$L0
 10
-0.374613
 20
-9.495687E-02
 40
6.200000E-02
  1
CK
 72
     5
 11
-0.267191
 21
-9.495687E-02
  0
TEXT
  8
Layer0$C$L0
 10
-0.1936162094
 20
-9.3750074506E-02
 40
6.2500000000E-02
  1
APP
 72
     5
 11
-2.2828550885E-02
 21
-9.3750074506E-02
  0
ENDBLK
  8
Layer0$C$L0
  0
BLOCK
  8
Layer0$C$L0
  2
LOGO
 70
     0
 10
0.000000
 20
0.000000
  0
LINE
  8
Layer0$C$L0
 10
4.644067
 20
0.318351
 11
4.799984
 21
0.371567
  0
INSERT
  8
Layer0$C$L0
  2
*X0
 10
0.000000
 20
0.000000
  0
INSERT
  8
Layer0$C$L0
  2
*X1
 10
0.000000
 20
0.000000
  0
INSERT
  8
Layer0$C$L0
  2
*X2
 10
0.000000
 20
0.000000
  0
INSERT
  8
Layer0$C$L0
  2
*X3
 10
0.000000
 20
0.000000
  0
INSERT
  8
Layer0$C$L0
  2
*X4
 10
0.000000
 20
0.000000
  0
INSERT
  8
Layer0$C$L0
  2
*X5
 10
0.000000
 20
0.000000
  0
ENDBLK
  8
Layer0$C$L0
  0
BLOCK
  8
Layer140$C$L140
  2
BLOCK3
 70
     0
 10
0.000000
 20
0.000000
  0
POINT
  8
Layer120$C$L120
 10
0.0000000000
 20
0.0000000000
  0
CIRCLE
  5
3
100
AcDbEntity
  8
Layer0$C$L0
100
AcDbCircle
 10
-3.4477629085E-17
 20
9.9555117483E-17
 40
0.2053430086
  0
POLYLINE
  8
Layer0$C$L0
 10
0.0000000000
 20
0.0000000000
 30
0.0000000000
 66
     1
 70
     0
  0
VERTEX
  8
Layer0$C$L0
 10
0.5122920555
 20
0.3712443053
  0
VERTEX
  8
Layer0$C$L0
 10
0.5124746556
 20
0.3715538413
  0
VERTEX
  8
Layer0$C$L0
 10
0.5126584337
 20
0.3717545572
  0
VERTEX
  8
Layer0$C$L0
 10
0.5128428861
 20
0.3718459030
  0
SEQEND
  8
Layer0$C$L0
  0
POLYLINE
  8
Layer0$C$L0
 10
0.0000000000
 20
0.0000000000
 30
0.0000000000
 66
     1
 70
     0
  0
VERTEX
  8
Layer0$C$L0
 10
-0.5128428861
 20
-0.3718459030
  0
VERTEX
  8
Layer0$C$L0
 10
-0.5126584337
 20
-0.3717545572
  0
VERTEX
  8
Layer0$C$L0
 10
-0.5124746556
 20
-0.3715538413
  0
VERTEX
  8
Layer0$C$L0
 10
-0.5122920555
 20
-0.3712443053
  0
SEQEND
  8
Layer0$C$L0
  0
POLYLINE
  8
Layer0$C$L0
 10
0.0000000000
 20
0.0000000000
 30
0.0000000000
 66
     1
 70
     0
  0
VERTEX
  8
Layer0$C$L0
 10
-0.5447048358
 20
-0.3750000000
  0
VERTEX
  8
Layer0$C$L0
 10
-0.5460610182
 20
-0.3749829783
  0
VERTEX
  8
Layer0$C$L0
 10
-0.5477562739
 20
-0.3749319710
  0
VERTEX
  8
Layer0$C$L0
 10
-0.5497848327
 20
-0.3748471518
  0
SEQEND
  8
Layer0$C$L0
  0
POLYLINE
  8
Layer0$C$L0
 10
0.0000000000
 20
0.0000000000
 30
0.0000000000
 66
     1
 70
     0
  0
VERTEX
  8
Layer0$C$L0
 10
-0.5325390412
 20
-0.3518489491
  0
VERTEX
  8
Layer0$C$L0
 10
-0.5323545888
 20
-0.3518032762
  0
VERTEX
  8
Layer0$C$L0
 10
-0.5321708107
 20
-0.3517029182
  0
VERTEX
  8
Layer0$C$L0
 10
-0.5319882106
 20
-0.3515481503
  0
SEQEND
  8
Layer0$C$L0
  0
POLYLINE
  8
Layer0$C$L0
 10
0.0000000000
 20
0.0000000000
 30
0.0000000000
 66
     1
 70
     0
  0
VERTEX
  8
Layer0$C$L0
 10
-0.5319882106
 20
0.3515481503
  0
VERTEX
  8
Layer0$C$L0
 10
-0.5321708107
 20
0.3517029182
  0
VERTEX
  8
Layer0$C$L0
 10
-0.5323545888
 20
0.3518032762
  0
VERTEX
  8
Layer0$C$L0
 10
-0.5325390412
 20
0.3518489491
  0
SEQEND
  8
Layer0$C$L0
  0
POLYLINE
  8
Layer0$C$L0
 10
0.0000000000
 20
0.0000000000
 30
0.0000000000
 66
     1
 70
     0
  0
VERTEX
  8
Layer0$C$L0
 10
-0.5128428861
 20
0.3718459030
  0
VERTEX
  8
Layer0$C$L0
 10
-0.5126584337
 20
0.3717545572
  0
VERTEX
  8
Layer0$C$L0
 10
-0.5124746556
 20
0.3715538413
  0
VERTEX
  8
Layer0$C$L0
 10
-0.5122920555
 20
0.3712443053
  0
SEQEND
  8
Layer0$C$L0
  0
POLYLINE
  8
Layer0$C$L0
 10
0.0000000000
 20
0.0000000000
 30
0.0000000000
 66
     1
 70
     0
  0
VERTEX
  8
Layer0$C$L0
 10
0.5447048358
 20
0.3750000000
  0
VERTEX
  8
Layer0$C$L0
 10
0.5460610182
 20
0.3749829783
  0
VERTEX
  8
Layer0$C$L0
 10
0.5477562739
 20
0.3749319710
  0
VERTEX
  8
Layer0$C$L0
 10
0.5497848327
 20
0.3748471518
  0
SEQEND
  8
Layer0$C$L0
  0
POLYLINE
  8
Layer0$C$L0
 10
0.0000000000
 20
0.0000000000
 30
0.0000000000
 66
     1
 70
     0
  0
VERTEX
  8
Layer0$C$L0
 10
0.5128428861
 20
-0.3718459030
  0
VERTEX
  8
Layer0$C$L0
 10
0.5126584337
 20
-0.3717545572
  0
VERTEX
  8
Layer0$C$L0
 10
0.5124746556
 20
-0.3715538413
  0
VERTEX
  8
Layer0$C$L0
 10
0.5122920555
 20
-0.3712443053
  0
SEQEND
  8
Layer0$C$L0
  0
POLYLINE
  8
Layer0$C$L0
 10
0.0000000000
 20
0.0000000000
 30
0.0000000000
 66
     1
 70
     0
  0
VERTEX
  8
Layer0$C$L0
 10
0.5325390412
 20
0.3518489491
  0
VERTEX
  8
Layer0$C$L0
 10
0.5323545888
 20
0.3518032762
  0
VERTEX
  8
Layer0$C$L0
 10
0.5321708107
 20
0.3517029182
  0
VERTEX
  8
Layer0$C$L0
 10
0.5319882106
 20
0.3515481503
  0
SEQEND
  8
Layer0$C$L0
  0
POLYLINE
  8
Layer0$C$L0
 10
0.0000000000
 20
0.0000000000
 30
0.0000000000
 66
     1
 70
     0
  0
VERTEX
  8
Layer0$C$L0
 10
0.5319882106
 20
-0.3515481503
  0
VERTEX
  8
Layer0$C$L0
 10
0.5321708107
 20
-0.3517029182
  0
VERTEX
  8
Layer0$C$L0
 10
0.5323545888
 20
-0.3518032762
  0
VERTEX
  8
Layer0$C$L0
 10
0.5325390412
 20
-0.3518489491
  0
SEQEND
  8
Layer0$C$L0
  0
POLYLINE
  8
Layer0$C$L0
 10
0.0000000000
 20
0.0000000000
 30
0.0000000000
 66
     1
 70
     0
  0
VERTEX
  8
Layer0$C$L0
 10
-0.5649518215
 20
0.3550575742
  0
VERTEX
  8
Layer0$C$L0
 10
-0.5645882084
 20
0.3590136088
  0
VERTEX
  8
Layer0$C$L0
 10
-0.5635117154
 20
0.3628184976
  0
VERTEX
  8
Layer0$C$L0
 10
-0.5617648146
 20
0.3663221214
  0
VERTEX
  8
Layer0$C$L0
 10
-0.5594164290
 20
0.3693862471
  0
VERTEX
  8
Layer0$C$L0
 10
-0.5565592124
 20
0.3718899816
  0
VERTEX
  8
Layer0$C$L0
 10
-0.5533058945
 20
0.3737345418
  0
VERTEX
  8
Layer0$C$L0
 10
-0.5497848327
 20
0.3748471518
  0
SEQEND
  8
Layer0$C$L0
  0
POLYLINE
  8
Layer0$C$L0
 10
0.0000000000
 20
0.0000000000
 30
0.0000000000
 66
     1
 70
     0
  0
VERTEX
  8
Layer0$C$L0
 10
-0.5497848327
 20
-0.3748471518
  0
VERTEX
  8
Layer0$C$L0
 10
-0.5533058945
 20
-0.3737345418
  0
VERTEX
  8
Layer0$C$L0
 10
-0.5565592124
 20
-0.3718899816
  0
VERTEX
  8
Layer0$C$L0
 10
-0.5594164290
 20
-0.3693862471
  0
VERTEX
  8
Layer0$C$L0
 10
-0.5617648146
 20
-0.3663221214
  0
VERTEX
  8
Layer0$C$L0
 10
-0.5635117154
 20
-0.3628184976
  0
VERTEX
  8
Layer0$C$L0
 10
-0.5645882084
 20
-0.3590136088
  0
VERTEX
  8
Layer0$C$L0
 10
-0.5649518215
 20
-0.3550575742
  0
SEQEND
  8
Layer0$C$L0
  0
POLYLINE
  8
Layer0$C$L0
 10
0.0000000000
 20
0.0000000000
 30
0.0000000000
 66
     1
 70
     0
  0
VERTEX
  8
Layer0$C$L0
 10
0.5497848327
 20
0.3748471518
  0
VERTEX
  8
Layer0$C$L0
 10
0.5533058945
 20
0.3737345418
  0
VERTEX
  8
Layer0$C$L0
 10
0.5565592124
 20
0.3718899816
  0
VERTEX
  8
Layer0$C$L0
 10
0.5594164290
 20
0.3693862471
  0
VERTEX
  8
Layer0$C$L0
 10
0.5617648146
 20
0.3663221214
  0
VERTEX
  8
Layer0$C$L0
 10
0.5635117154
 20
0.3628184976
  0
VERTEX
  8
Layer0$C$L0
 10
0.5645882084
 20
0.3590136088
  0
VERTEX
  8
Layer0$C$L0
 10
0.5649518215
 20
0.3550575742
  0
SEQEND
  8
Layer0$C$L0
  0
POLYLINE
  8
Layer0$C$L0
 10
0.0000000000
 20
0.0000000000
 30
0.0000000000
 66
     1
 70
     0
  0
VERTEX
  8
Layer0$C$L0
 10
0.5649518215
 20
-0.3550575742
  0
VERTEX
  8
Layer0$C$L0
 10
0.5645882084
 20
-0.3590136088
  0
VERTEX
  8
Layer0$C$L0
 10
0.5635117154
 20
-0.3628184976
  0
VERTEX
  8
Layer0$C$L0
 10
0.5617648146
 20
-0.3663221214
  0
VERTEX
  8
Layer0$C$L0
 10
0.5594164290
 20
-0.3693862471
  0
VERTEX
  8
Layer0$C$L0
 10
0.5565592124
 20
-0.3718899816
  0
VERTEX
  8
Layer0$C$L0
 10
0.5533058945
 20
-0.3737345418
  0
VERTEX
  8
Layer0$C$L0
 10
0.5497848327
 20
-0.3748471518
  0
SEQEND
  8
Layer0$C$L0
  0
LINE
  8
Layer0$C$L0
 10
-0.6300000000
 20
0.2080030461
 11
-0.6300000000
 21
-0.2180030461
  0
LINE
  8
Layer0$C$L0
 10
-0.6300000000
 20
-0.2180030461
 11
-0.6268459030
 21
-0.2148489491
  0
LINE
  8
Layer0$C$L0
 10
-0.6268459030
 20
-0.2148489491
 11
-0.6268459030
 21
0.2048489491
  0
LINE
  8
Layer0$C$L0
 10
-0.6100030461
 20
0.2280000000
 11
-0.5849518215
 21
0.2280000000
  0
LINE
  8
Layer0$C$L0
 10
-0.6100030461
 20
-0.2380000000
 11
-0.5849518215
 21
-0.2380000000
  0
LINE
  8
Layer0$C$L0
 10
-0.6100030461
 20
-0.2380000000
 11
-0.6068489491
 21
-0.2348459030
  0
LINE
  8
Layer0$C$L0
 10
-0.6068489491
 20
0.2248459030
 11
-0.5519882106
 21
0.2248459030
  0
LINE
  8
Layer0$C$L0
 10
-0.6068489491
 20
-0.2348459030
 11
-0.5519882106
 21
-0.2348459030
  0
LINE
  8
Layer0$C$L0
 10
-0.5649518215
 20
-0.3550575742
 11
-0.5649518215
 21
-0.2580000000
  0
LINE
  8
Layer0$C$L0
 10
-0.5649518215
 20
0.2480000000
 11
-0.5649518215
 21
0.3550575742
  0
LINE
  8
Layer0$C$L0
 10
-0.5447048358
 20
0.3750000000
 11
0.5447048358
 21
0.3750000000
  0
LINE
  8
Layer0$C$L0
 10
-0.5447048358
 20
-0.3750000000
 11
0.5447048358
 21
-0.3750000000
  0
LINE
  8
Layer0$C$L0
 10
-0.5319882106
 20
0.3515481503
 11
-0.5319882106
 21
0.2448459030
  0
LINE
  8
Layer0$C$L0
 10
-0.5319882106
 20
-0.2548459030
 11
-0.5319882106
 21
-0.3515481503
  0
LINE
  8
Layer0$C$L0
 10
-0.5128428861
 20
-0.3718459030
 11
0.5128428861
 21
-0.3718459030
  0
LINE
  8
Layer0$C$L0
 10
-0.5128428861
 20
0.3718459030
 11
0.5128428861
 21
0.3718459030
  0
LINE
  8
Layer0$C$L0
 10
0.5319882106
 20
-0.2548459030
 11
0.5319882106
 21
-0.3515481503
  0
LINE
  8
Layer0$C$L0
 10
0.5319882106
 20
0.3515481503
 11
0.5319882106
 21
0.2448459030
  0
LINE
  8
Layer0$C$L0
 10
0.5519882106
 20
-0.2348459030
 11
0.6068489491
 21
-0.2348459030
  0
LINE
  8
Layer0$C$L0
 10
0.5519882106
 20
0.2248459030
 11
0.6068489491
 21
0.2248459030
  0
LINE
  8
Layer0$C$L0
 10
0.5649518215
 20
-0.3550575742
 11
0.5649518215
 21
-0.2580000000
  0
LINE
  8
Layer0$C$L0
 10
0.5649518215
 20
0.2480000000
 11
0.5649518215
 21
0.3550575742
  0
LINE
  8
Layer0$C$L0
 10
0.5849518215
 20
0.2280000000
 11
0.6100030461
 21
0.2280000000
  0
LINE
  8
Layer0$C$L0
 10
0.5849518215
 20
-0.2380000000
 11
0.6100030461
 21
-0.2380000000
  0
LINE
  8
Layer0$C$L0
 10
0.6268459030
 20
0.2048489491
 11
0.6268459030
 21
-0.2148489491
  0
LINE
  8
Layer0$C$L0
 10
0.6300000000
 20
0.2080030461
 11
0.6300000000
 21
-0.2180030461
  0
ARC
  8
Layer0$C$L0
 10
-0.6100043073
 20
-0.2180043073
 40
1.9995692768E-02
100
AcDbArc
 50
179.9963862221
 51
270.0036137779
  0
ARC
  8
Layer0$C$L0
 10
-0.6100043073
 20
0.2080043073
 40
1.9995692768E-02
100
AcDbArc
 50
89.9963862221
 51
180.0036137779
  0
ARC
  8
Layer0$C$L0
 10
-0.6068415953
 20
-0.2148415953
 40
2.0004309087E-02
100
AcDbArc
 50
180.0210626408
 51
269.9789373592
  0
ARC
  8
Layer0$C$L0
 10
-0.6068415953
 20
0.2048415953
 40
2.0004309087E-02
100
AcDbArc
 50
90.0210626408
 51
179.9789373592
  0
ARC
  8
Layer0$C$L0
 10
-0.5433257053
 20
0.2446690600
 40
0.1303382366
100
AcDbArc
 50
90.6062674599
 51
92.8405508048
  0
ARC
  8
Layer0$C$L0
 10
-0.5126180189
 20
-0.3519260009
 40
1.9921171245E-02
100
AcDbArc
 50
179.7783887446
 51
269.3532401589
  0
ARC
  8
Layer0$C$L0
 10
-0.5126180189
 20
0.3519260009
 40
1.9921171245E-02
100
AcDbArc
 50
90.6467598411
 51
180.2216112554
  0
ARC
  8
Layer0$C$L0
 10
-0.5115592354
 20
-0.3508153301
 40
2.0442114710E-02
100
AcDbArc
 50
182.0544107642
 51
267.9455892358
  0
ARC
  8
Layer0$C$L0
 10
-0.5115592354
 20
0.3508153301
 40
2.0442114710E-02
100
AcDbArc
 50
92.0544107642
 51
177.9455892358
  0
ARC
  8
Layer0$C$L0
 10
0.5115592354
 20
0.3508153301
 40
2.0442114710E-02
100
AcDbArc
 50
2.0544107642
 51
87.9455892358
  0
ARC
  8
Layer0$C$L0
 10
0.5115592354
 20
-0.3508153301
 40
2.0442114710E-02
100
AcDbArc
 50
272.0544107642
 51
357.9455892358
  0
ARC
  8
Layer0$C$L0
 10
0.5126180189
 20
-0.3519260009
 40
1.9921171245E-02
100
AcDbArc
 50
270.6467598411
 51
360.2216112554
  0
ARC
  8
Layer0$C$L0
 10
0.5126180189
 20
0.3519260009
 40
1.9921171245E-02
100
AcDbArc
 50
359.7783887446
 51
449.3532401589
  0
ARC
  8
Layer0$C$L0
 10
0.5433257053
 20
-0.2446690600
 40
0.1303382366
100
AcDbArc
 50
270.6062674599
 51
272.8405508048
  0
ARC
  8
Layer0$C$L0
 10
0.6068415953
 20
0.2048415953
 40
2.0004309087E-02
100
AcDbArc
 50
2.1062640804E-02
 51
89.9789373592
  0
ARC
  8
Layer0$C$L0
 10
0.6068415953
 20
-0.2148415953
 40
2.0004309087E-02
100
AcDbArc
 50
270.0210626408
 51
359.9789373592
  0
ARC
  8
Layer0$C$L0
 10
0.6100043073
 20
0.2080043073
 40
1.9995692768E-02
100
AcDbArc
 50
359.9963862221
 51
450.0036137779
  0
ARC
  8
Layer0$C$L0
 10
0.6100043073
 20
-0.2180043073
 40
1.9995692768E-02
100
AcDbArc
 50
269.9963862221
 51
360.0036137779
  0
LINE
  8
Layer0$C$L0
 10
-0.6300000000
 20
0.2080030461
 11
-0.6268459030
 21
0.2048489491
  0
LINE
  8
Layer0$C$L0
 10
-0.6100030461
 20
0.2280000000
 11
-0.6068489491
 21
0.2248459030
  0
LINE
  8
Layer0$C$L0
 10
-0.5649518215
 20
-0.3550575742
 11
-0.5325390412
 21
-0.3518489491
  0
LINE
  8
Layer0$C$L0
 10
-0.5649518215
 20
0.3550575742
 11
-0.5325390412
 21
0.3518489491
  0
LINE
  8
Layer0$C$L0
 10
-0.5447048358
 20
-0.3750000000
 11
-0.5128428861
 21
-0.3718459030
  0
LINE
  8
Layer0$C$L0
 10
-0.5447048358
 20
0.3750000000
 11
-0.5128428861
 21
0.3718459030
  0
LINE
  8
Layer0$C$L0
 10
0.5128428861
 20
-0.3718459030
 11
0.5447048358
 21
-0.3750000000
  0
LINE
  8
Layer0$C$L0
 10
0.5128428861
 20
0.3718459030
 11
0.5447048358
 21
0.3750000000
  0
LINE
  8
Layer0$C$L0
 10
0.5325390412
 20
0.3518489491
 11
0.5649518215
 21
0.3550575742
  0
LINE
  8
Layer0$C$L0
 10
0.5325390412
 20
-0.3518489491
 11
0.5649518215
 21
-0.3550575742
  0
LINE
  8
Layer0$C$L0
 10
0.6068489491
 20
0.2248459030
 11
0.6100030461
 21
0.2280000000
  0
LINE
  8
Layer0$C$L0
 10
0.6068489491
 20
-0.2348459030
 11
0.6100030461
 21
-0.2380000000
  0
LINE
  8
Layer0$C$L0
 10
0.6268459030
 20
0.2048489491
 11
0.6300000000
 21
0.2080030461
  0
LINE
  8
Layer0$C$L0
 10
0.6268459030
 20
-0.2148489491
 11
0.6300000000
 21
-0.2180030461
  0
CIRCLE
  5
4
100
AcDbEntity
  8
Layer0$C$L0
100
AcDbCircle
 10
-1.5666721392E-17
 20
-1.3672530549E-16
 40
0.2551700000
  0
CIRCLE
  5
5
100
AcDbEntity
  8
Layer0$C$L0
100
AcDbCircle
 10
0.0000000000
 20
0.0000000000
 40
0.1401598857
  0
CIRCLE
  5
6
100
AcDbEntity
  8
Layer0$C$L0
100
AcDbCircle
 10
1.1519648083E-17
 20
-1.3583300922E-16
 40
0.2510855148
  0
CIRCLE
  5
7
100
AcDbEntity
  8
Layer0$C$L0
100
AcDbCircle
 10
2.7620050344E-17
 20
4.3482648106E-17
 40
0.2092544852
  0
ARC
  8
Layer0$C$L0
 10
0.5519882106
 20
0.2448459030
 40
2.0000000000E-02
100
AcDbArc
 50
180.0000000000
 51
270.0000000000
  0
ARC
  8
Layer0$C$L0
 10
0.5849518215
 20
0.2480000000
 40
2.0000000000E-02
100
AcDbArc
 50
180.0000000000
 51
270.0000000000
  0
ARC
  8
Layer0$C$L0
 10
-0.5519882106
 20
0.2448459030
 40
2.0000000000E-02
100
AcDbArc
 50
270.0000000000
 51
360.0000000000
  0
ARC
  8
Layer0$C$L0
 10
-0.5849518215
 20
0.2480000000
 40
2.0000000000E-02
100
AcDbArc
 50
270.0000000000
 51
360.0000000000
  0
ARC
  8
Layer0$C$L0
 10
-0.5519882106
 20
-0.2548459030
 40
2.0000000000E-02
100
AcDbArc
 50
0.0000000000
 51
90.0000000000
  0
ARC
  8
Layer0$C$L0
 10
-0.5849518215
 20
-0.2580000000
 40
2.0000000000E-02
100
AcDbArc
 50
0.0000000000
 51
90.0000000000
  0
ARC
  8
Layer0$C$L0
 10
0.5519882106
 20
-0.2548459030
 40
2.0000000000E-02
100
AcDbArc
 50
90.0000000000
 51
180.0000000000
  0
ARC
  8
Layer0$C$L0
 10
0.5849518215
 20
-0.2580000000
 40
2.0000000000E-02
100
AcDbArc
 50
90.0000000000
 51
180.0000000000
  0
ENDBLK
  8
Layer0$C$L0
  0
ENDSEC
  0
SECTION
  2
ENTITIES
  0
TEXT
  8
Layer200$C$L200
 10
3.5613876005
 20
3.8273763658
 40
9.3999998721E-02
  1
205
 72
     5
 11
3.8182522355
 21
3.8273763658
  0
TEXT
  8
Layer200$C$L200
 10
2.4584261437
 20
-3.1519502878
 40
0.2500000000
  1
700652
 72
     5
 11
3.8915767778
 21
-3.1519502878
  0
TEXT
  8
Layer200$C$L200
 10
2.2832896310
 20
3.4314998568
 40
6.2000000266E-02
  1
INITIAL RELEASE
 72
     5
 11
3.1967109922
 21
3.4314998568
  0
TEXT
  8
Layer200$C$L200
 10
0.7122900116
 20
3.4314998568
 40
6.2000000266E-02
  1
-
 72
     5
 11
0.7577113690
 21
3.4314998568
  0
TEXT
  8
Layer200$C$L200
 10
-0.6744307939
 20
-2.4819998260
 40
9.3999998721E-02
  1
A15QS(500 - 1000)-4IL
 72
     5
 11
1.2744338180
 21
-2.4819998260
  0
TEXT
  8
Layer200$C$L200
 10
-6.3430851633E-02
 20
-2.7639998371
 40
9.3999998721E-02
  1
FORM 101
 72
     5
 11
0.6634337769
 21
-2.7639998371
  0
TEXT
  8
Layer200$C$L200
 10
-0.5334308183
 20
-2.9049998426
 40
9.3999998721E-02
  1
SEMICONDUCTOR FUSE
 72
     5
 11
1.1334337974
 21
-2.9049998426
  0
TEXT
  8
Layer200$C$L200
 10
-1.3794308158
 20
-3.1869998537
 40
9.3999998721E-02
  1
500-1000AMPS   150VAC IEC/165VAC MAX
 72
     5
 11
1.9794337770
 21
-3.1869998537
  0
TEXT
  8
Layer0$C$L0
 10
4.186290
 20
3.436159
 40
6.200000E-02
  1
NA
 72
     5
 11
4.293711
 21
3.436159
  0
TEXT
  8
Layer200$C$L200
 10
3.9662899581
 20
3.4314998568
 40
6.2000000266E-02
  1
NA
 72
     5
 11
4.0737113158
 21
3.4314998568
  0
TEXT
  8
Layer200$C$L200
 10
3.7152896998
 20
3.4314998568
 40
6.2000000266E-02
  1
KMH
 72
     5
 11
3.8847110578
 21
3.4314998568
  0
TEXT
  8
Layer200$C$L200
 10
1.5562899914
 20
3.4314998568
 40
6.2000000266E-02
  1
NA
 72
     5
 11
1.6637113492
 21
3.4314998568
  0
TEXT
  8
Layer200$C$L200
 10
0.9412900748
 20
3.4314998568
 40
6.2000000266E-02
  1
4-10-01
 72
     5
 11
1.3587114338
 21
3.4314998568
  0
LINE
  8
Layer0$C$L0
 10
4.1300003827
 20
3.3374998569
 11
4.1300003827
 21
3.5874998551
  0
LINE
  8
Layer0$C$L0
 10
3.910000
 20
3.337500
 11
3.910000
 21
3.587500
  0
LINE
  8
Layer0$C$L0
 10
3.690000
 20
3.337500
 11
3.690000
 21
3.587500
  0
LINE
  8
Layer0$C$L0
 10
1.790000
 20
3.337500
 11
1.790000
 21
3.587500
  0
LINE
  8
Layer0$C$L0
 10
1.430001
 20
3.337500
 11
1.430001
 21
3.587500
  0
LINE
  8
Layer0$C$L0
 10
0.600001
 20
3.337500
 11
0.600001
 21
3.587500
  0
LINE
  8
Layer0$C$L0
 10
0.870001
 20
3.337500
 11
0.870001
 21
3.587500
  0
LINE
  8
Layer0$C$L0
 10
0.600001
 20
3.337500
 11
4.350000
 21
3.337500
  0
INSERT
  8
Layer140$C$L140
  2
ASIZE-OUTLINE-LASER
 10
0.000000
 20
0.000000
  0
DIMENSION
  8
Layer220$C$L220
  2
*D0
 10
-2.6250000000
 20
0.4770270834
 11
-4.4279834239
 21
0.4770270844
  3
DIM1
100
AcDbAlignedDimension
 13
-2.0000000000
 23
1.8149370536
 14
-2.6250000000
 24
1.0649370536
100
AcDbRotatedDimension
  0
POINT
  8
Layer120$C$L120
 10
-2.0000000000
 20
1.8149370536
  0
INSERT
  8
Layer140$C$L140
  2
BLOCK3
 10
-2.000000
 20
1.814937
 41
1.000000
 42
-1.000000
 43
1.000000
 50
90.000000
  0
DIMENSION
  8
Layer220$C$L220
  2
*D1
 70
     1
 10
0.6300530329
 20
1.3149370536
 11
0.6300530329
 21
1.8149370536
  3
DIM1
100
AcDbAlignedDimension
 13
-0.2500000000
 23
2.3149370536
 14
-0.2500000000
 24
1.3149370536
  0
DIMENSION
  8
Layer220$C$L220
  2
*D2
 70
     1
 10
-4.3362969625
 20
1.6119370536
 11
-4.3362969625
 21
1.0130920067
  3
DIM1
100
AcDbAlignedDimension
 13
-3.2820000000
 23
2.0179370536
 14
-3.2820000000
 24
1.6119370536
  0
DIMENSION
  8
Layer220$C$L220
  2
*D3
 70
     1
 10
-1.3750000000
 20
6.8204469493E-02
 11
-2.0000000000
 21
6.8204470462E-02
  3
DIM1
100
AcDbAlignedDimension
 13
-2.6250000000
 23
1.0649370536
 14
-1.3750000000
 24
1.0649370536
  0
DIMENSION
  8
Layer220$C$L220
  2
*D4
 70
     1
 10
-1.0300000000
 20
-0.5078849558
 11
-2.0000000000
 21
-0.5078849548
  3
DIM1
100
AcDbAlignedDimension
 13
-2.9700000000
 23
1.5713370536
 14
-1.0300000000
 24
1.5713370536
  0
DIMENSION
  8
Layer220$C$L220
  2
*D5
 70
     1
 10
-0.7180000000
 20
-1.1712606576
 11
-2.0000000000
 21
-1.1712606566
  3
DIM1
100
AcDbAlignedDimension
 13
-3.2820000000
 23
1.5713370536
 14
-0.7180000000
 24
1.5713370536
  0
DIMENSION
  8
Layer220$C$L220
  2
*D6
 70
     1
 10
-3.7500000000
 20
-1.8171791041
 11
-2.0000000000
 21
-1.8171791031
  3
DIM1
100
AcDbAlignedDimension
 13
-0.2500000000
 23
1.3149370536
 14
-3.7500000000
 24
1.3149370536
  0
LINE
  8
Layer40$C$L40
  6
CENTERLINE
 10
-0.7180000000
 20
1.5713370536
 11
-0.7180000000
 21
2.0585370536
  0
LINE
  8
Layer40$C$L40
  6
CENTERLINE
 10
-0.9616000000
 20
1.8149370536
 11
-0.4744000000
 21
1.8149370536
  0
LINE
  8
Layer40$C$L40
  6
CENTERLINE
 10
-1.0300000000
 20
1.5713370536
 11
-1.0300000000
 21
2.0585370536
  0
LINE
  8
Layer40$C$L40
  6
CENTERLINE
 10
-1.2736000000
 20
1.8149370536
 11
-0.7864000000
 21
1.8149370536
  0
LINE
  8
Layer40$C$L40
  6
CENTERLINE
 10
-2.9700000000
 20
1.5713370536
 11
-2.9700000000
 21
2.0585370536
  0
LINE
  8
Layer40$C$L40
  6
CENTERLINE
 10
-3.2136000000
 20
1.8149370536
 11
-2.7264000000
 21
1.8149370536
  0
LINE
  8
Layer40$C$L40
  6
CENTERLINE
 10
-3.2820000000
 20
1.5713370536
 11
-3.2820000000
 21
2.0585370536
  0
LINE
  8
Layer40$C$L40
  6
CENTERLINE
 10
-3.5256000000
 20
1.8149370536
 11
-3.0384000000
 21
1.8149370536
  0
ARC
  8
Layer0$C$L0
 10
-0.7180000000
 20
1.8149370536
 40
0.2030000000
100
AcDbArc
 50
270.0000000000
 51
450.0000000000
  0
ARC
  8
Layer0$C$L0
 10
-1.0300000000
 20
1.8149370536
 40
0.2030000000
100
AcDbArc
 50
90.0000000000
 51
270.0000000000
  0
ARC
  8
Layer0$C$L0
 10
-2.9700000000
 20
1.8149370536
 40
0.2030000000
100
AcDbArc
 50
270.0000000000
 51
450.0000000000
  0
ARC
  8
Layer0$C$L0
 10
-3.2820000000
 20
1.8149370536
 40
0.2030000000
100
AcDbArc
 50
90.0000000000
 51
270.0000000000
  0
LINE
  8
Layer0$C$L0
 10
-0.2500000000
 20
2.3149370536
 11
-0.2500000000
 21
1.3149370536
  0
LINE
  8
Layer0$C$L0
 10
-1.0300000000
 20
1.6119370536
 11
-0.7180000000
 21
1.6119370536
  0
LINE
  8
Layer0$C$L0
 10
-1.0300000000
 20
2.0179370536
 11
-0.7180000000
 21
2.0179370536
  0
LINE
  8
Layer0$C$L0
 10
-1.3350000000
 20
2.3149370536
 11
-0.2500000000
 21
2.3149370536
  0
LINE
  8
Layer0$C$L0
 10
-1.3350000000
 20
2.3149370536
 11
-1.3350000000
 21
1.3149370536
  0
LINE
  8
Layer0$C$L0
 10
-1.3350000000
 20
1.3149370536
 11
-0.2500000000
 21
1.3149370536
  0
LINE
  8
Layer0$C$L0
 10
-1.3750000000
 20
1.0649370536
 11
-1.3750000000
 21
2.5649370536
  0
LINE
  8
Layer0$C$L0
 10
-1.3750000000
 20
1.2749370536
 11
-1.3350000000
 21
1.3149370536
  0
LINE
  8
Layer0$C$L0
 10
-1.3750000000
 20
2.3549370536
 11
-1.3350000000
 21
2.3149370536
  0
LINE
  8
Layer0$C$L0
 10
-2.6250000000
 20
2.5649370536
 11
-1.3750000000
 21
2.5649370536
  0
LINE
  8
Layer0$C$L0
 10
-2.6250000000
 20
1.0649370536
 11
-2.6250000000
 21
2.5649370536
  0
LINE
  8
Layer0$C$L0
 10
-2.6250000000
 20
1.0649370536
 11
-1.3750000000
 21
1.0649370536
  0
LINE
  8
Layer0$C$L0
 10
-2.6650000000
 20
1.3149370536
 11
-2.6250000000
 21
1.2749370536
  0
LINE
  8
Layer0$C$L0
 10
-2.6650000000
 20
1.3149370536
 11
-2.6650000000
 21
2.3149370536
  0
LINE
  8
Layer0$C$L0
 10
-2.6650000000
 20
2.3149370536
 11
-2.6250000000
 21
2.3549370536
  0
LINE
  8
Layer0$C$L0
 10
-3.2820000000
 20
1.6119370536
 11
-2.9700000000
 21
1.6119370536
  0
LINE
  8
Layer0$C$L0
 10
-3.2820000000
 20
2.0179370536
 11
-2.9700000000
 21
2.0179370536
  0
LINE
  8
Layer0$C$L0
 10
-3.7500000000
 20
1.3149370536
 11
-2.6650000000
 21
1.3149370536
  0
LINE
  8
Layer0$C$L0
 10
-3.7500000000
 20
2.3149370536
 11
-2.6650000000
 21
2.3149370536
  0
LINE
  8
Layer0$C$L0
 10
-3.7500000000
 20
1.3149370536
 11
-3.7500000000
 21
2.3149370536
  0
DIMENSION
  8
Layer220$C$L220
  2
*D7
 10
1.8729999908
 20
0.5546596994
 11
1.1903900837
 21
0.5546597004
  3
DIM1
100
AcDbAlignedDimension
 13
2.3749999908
 23
1.8149370536
 14
1.8729999908
 24
1.2280850584
100
AcDbRotatedDimension
  0
ARC
  8
Layer0$C$L0
 10
2.2929999908
 20
2.4214429940
 40
2.0000000000E-02
100
AcDbArc
 50
3.1805546815E-13
 51
89.0000000000
  0
ARC
  8
Layer0$C$L0
 10
1.9129999908
 20
2.4017890488
 40
4.0000000000E-02
100
AcDbArc
 50
91.0000000000
 51
180.0000000000
  0
ARC
  8
Layer0$C$L0
 10
2.2929999908
 20
2.3214429940
 40
2.0000000000E-02
100
AcDbArc
 50
3.1805546815E-13
 51
89.0000000000
  0
ARC
  8
Layer0$C$L0
 10
1.9129999908
 20
2.3075329541
 40
4.0000000000E-02
100
AcDbArc
 50
100.0000000000
 51
180.0000000000
  0
ARC
  8
Layer0$C$L0
 10
2.3229999908
 20
2.1060140262
 40
1.0000000000E-02
100
AcDbArc
 50
180.0000000000
 51
269.0000000000
  0
ARC
  8
Layer0$C$L0
 10
2.3279382834
 20
1.8938185416
 40
6.8806798973E-02
100
AcDbArc
 50
85.9337210189
 51
102.5390460065
  0
ARC
  8
Layer0$C$L0
 10
2.3293498982
 20
1.7648677074
 40
9.7507406877E-02
100
AcDbArc
 50
260.3471235497
 51
272.0379493570
  0
ARC
  8
Layer0$C$L0
 10
2.3229999908
 20
1.5238600810
 40
1.0000000000E-02
100
AcDbArc
 50
91.0000000000
 51
180.0000000000
  0
ARC
  8
Layer0$C$L0
 10
1.9129999908
 20
1.3223411531
 40
4.0000000000E-02
100
AcDbArc
 50
180.0000000000
 51
260.0000000000
  0
ARC
  8
Layer0$C$L0
 10
2.2929999908
 20
1.3084311131
 40
2.0000000000E-02
100
AcDbArc
 50
271.0000000000
 51
360.0000000000
  0
ARC
  8
Layer0$C$L0
 10
1.9129999908
 20
1.2280850584
 40
4.0000000000E-02
100
AcDbArc
 50
180.0000000000
 51
269.0000000000
  0
ARC
  8
Layer0$C$L0
 10
2.2929999908
 20
1.2084311131
 40
2.0000000000E-02
100
AcDbArc
 50
271.0000000000
 51
360.0000000000
  0
LINE
  8
Layer0$C$L0
 10
1.9123018945
 20
2.4417829566
 11
2.0929999908
 21
2.4449370536
  0
LINE
  8
Layer0$C$L0
 10
2.2933490389
 20
2.4414399479
 11
2.0929999908
 21
2.4449370536
  0
LINE
  8
Layer0$C$L0
 10
1.9060540636
 20
2.3469252642
 11
2.0929999908
 21
2.3798888751
  0
LINE
  8
Layer0$C$L0
 10
2.1133861461
 20
2.3445790182
 11
2.0929999908
 21
2.3798888751
  0
LINE
  8
Layer0$C$L0
 10
2.2933490389
 20
2.3414399479
 11
2.1133848667
 21
2.3445812343
  0
LINE
  8
Layer0$C$L0
 10
2.3750051948
 20
2.0933008134
 11
2.3327290400
 21
2.0942080573
  0
LINE
  8
Layer0$C$L0
 10
2.4289163283
 20
2.0941637264
 11
2.3228254667
 21
2.0960155493
  0
LINE
  8
Layer0$C$L0
 10
2.4237551567
 20
2.0841667677
 11
2.3750051220
 21
2.0852038435
  0
LINE
  8
Layer0$C$L0
 10
2.3749999908
 20
1.9609580490
 11
2.3328174007
 21
1.9624521325
  0
LINE
  8
Layer0$C$L0
 10
2.3749999908
 20
1.9516183406
 11
2.3875693155
 21
1.9516703679
  0
LINE
  8
Layer0$C$L0
 10
2.3749999908
 20
1.9365742560
 11
2.3326509426
 21
1.9366582234
  0
LINE
  8
Layer0$C$L0
 10
2.4237499908
 20
2.0809228380
 11
2.4237499908
 21
2.0839217019
  0
LINE
  8
Layer0$C$L0
 10
2.3749999908
 20
1.9284092760
 11
2.3749999908
 21
2.0931326109
  0
LINE
  8
Layer0$C$L0
 10
2.3749999908
 20
1.9284092760
 11
2.3836380550
 21
1.9284380677
  0
LINE
  8
Layer0$C$L0
 10
2.3326509426
 20
1.9167566718
 11
2.3819699064
 21
1.9169482968
  0
LINE
  8
Layer0$C$L0
 10
2.3819699064
 20
1.7129258103
 11
2.3326509426
 21
1.7131174354
  0
LINE
  8
Layer0$C$L0
 10
2.3836380550
 20
1.7014360395
 11
2.3749999908
 21
1.7014648312
  0
LINE
  8
Layer0$C$L0
 10
2.3326509426
 20
1.6932158838
 11
2.3749999908
 21
1.6932998512
  0
LINE
  8
Layer0$C$L0
 10
2.3875693155
 20
1.6782037393
 11
2.3749999908
 21
1.6782557666
  0
LINE
  8
Layer0$C$L0
 10
2.3328174007
 20
1.6674219747
 11
2.3749999908
 21
1.6689160581
  0
LINE
  8
Layer0$C$L0
 10
2.4237499908
 20
1.5458782155
 11
2.4237499908
 21
1.5489512692
  0
LINE
  8
Layer0$C$L0
 10
2.3750057175
 20
1.5446635398
 11
2.4237557895
 21
1.5457016988
  0
LINE
  8
Layer0$C$L0
 10
2.3749999908
 20
1.5367868057
 11
2.3749999908
 21
1.7014648312
  0
LINE
  8
Layer0$C$L0
 10
2.3327290206
 20
1.5356664807
 11
2.3750046049
 21
1.5365686412
  0
LINE
  8
Layer0$C$L0
 10
2.3228254667
 20
1.5338585579
 11
2.4289163283
 21
1.5357103808
  0
LINE
  8
Layer0$C$L0
 10
2.1133848667
 20
1.2852928729
 11
2.2933490389
 21
1.2884341592
  0
LINE
  8
Layer0$C$L0
 10
2.0929999908
 20
1.2499852321
 11
1.9060540636
 21
1.2829488430
  0
LINE
  8
Layer0$C$L0
 10
2.0929999908
 20
1.2499852321
 11
2.1133861461
 21
1.2852950890
  0
LINE
  8
Layer0$C$L0
 10
1.8729999908
 20
1.2280850584
 11
1.8729999908
 21
2.4017890488
  0
LINE
  8
Layer0$C$L0
 10
2.3129999908
 20
1.2084311131
 11
2.3129999908
 21
2.4214429940
  0
LINE
  8
Layer0$C$L0
 10
2.0929999908
 20
1.1849370536
 11
2.2933490389
 21
1.1884341592
  0
LINE
  8
Layer0$C$L0
 10
2.0929999908
 20
1.1849370536
 11
1.9123018945
 21
1.1880911506
  0
POLYLINE
  8
Layer0$C$L0
 10
0.0000000000
 20
0.0000000000
 30
0.0000000000
 66
     1
 70
     0
  0
VERTEX
  8
Layer0$C$L0
 10
2.3326509426
 20
1.9366582234
  0
VERTEX
  8
Layer0$C$L0
 10
2.3261250126
 20
1.9358510730
  0
VERTEX
  8
Layer0$C$L0
 10
2.3203599551
 20
1.9338684259
  0
VERTEX
  8
Layer0$C$L0
 10
2.3173191085
 20
1.9326950313
  0
VERTEX
  8
Layer0$C$L0
 10
2.3152689172
 20
1.9322776673
  0
VERTEX
  8
Layer0$C$L0
 10
2.3137152472
 20
1.9331561395
  0
VERTEX
  8
Layer0$C$L0
 10
2.3130086534
 20
1.9377489184
  0
VERTEX
  8
Layer0$C$L0
 10
2.3129999908
 20
1.9388934699
  0
SEQEND
  8
Layer0$C$L0
  0
POLYLINE
  8
Layer0$C$L0
 10
0.0000000000
 20
0.0000000000
 30
0.0000000000
 66
     1
 70
     0
  0
VERTEX
  8
Layer0$C$L0
 10
2.3326509426
 20
1.6932158838
  0
VERTEX
  8
Layer0$C$L0
 10
2.3299571803
 20
1.6933264990
  0
VERTEX
  8
Layer0$C$L0
 10
2.3236819263
 20
1.6947548909
  0
VERTEX
  8
Layer0$C$L0
 10
2.3199784681
 20
1.6961594320
  0
VERTEX
  8
Layer0$C$L0
 10
2.3167056287
 20
1.6973677657
  0
VERTEX
  8
Layer0$C$L0
 10
2.3147197301
 20
1.6975234362
  0
VERTEX
  8
Layer0$C$L0
 10
2.3135716863
 20
1.6964339951
  0
VERTEX
  8
Layer0$C$L0
 10
2.3129999908
 20
1.6909806373
  0
SEQEND
  8
Layer0$C$L0
  0
POLYLINE
  8
Layer0$C$L0
 10
0.0000000000
 20
0.0000000000
 30
0.0000000000
 66
     1
 70
     0
  0
VERTEX
  8
Layer0$C$L0
 10
2.3326509426
 20
1.7131174354
  0
VERTEX
  8
Layer0$C$L0
 10
2.3262722564
 20
1.7130376211
  0
VERTEX
  8
Layer0$C$L0
 10
2.3206550379
 20
1.7128337052
  0
VERTEX
  8
Layer0$C$L0
 10
2.3162878897
 20
1.7125459818
  0
VERTEX
  8
Layer0$C$L0
 10
2.3136111594
 20
1.7122205509
  0
VERTEX
  8
Layer0$C$L0
 10
2.3130007587
 20
1.7120000671
  0
VERTEX
  8
Layer0$C$L0
 10
2.3129999908
 20
1.7119924426
  0
SEQEND
  8
Layer0$C$L0
  0
POLYLINE
  8
Layer0$C$L0
 10
0.0000000000
 20
0.0000000000
 30
0.0000000000
 66
     1
 70
     0
  0
VERTEX
  8
Layer0$C$L0
 10
2.3129999908
 20
1.9178816646
  0
VERTEX
  8
Layer0$C$L0
 10
2.3130007587
 20
1.9178740400
  0
VERTEX
  8
Layer0$C$L0
 10
2.3136111594
 20
1.9176535563
  0
VERTEX
  8
Layer0$C$L0
 10
2.3162878897
 20
1.9173281254
  0
VERTEX
  8
Layer0$C$L0
 10
2.3206550379
 20
1.9170404020
  0
VERTEX
  8
Layer0$C$L0
 10
2.3262722564
 20
1.9168364861
  0
VERTEX
  8
Layer0$C$L0
 10
2.3326509426
 20
1.9167566718
  0
SEQEND
  8
Layer0$C$L0
  0
POLYLINE
  8
Layer0$C$L0
 10
0.0000000000
 20
0.0000000000
 30
0.0000000000
 66
     1
 70
     0
  0
VERTEX
  8
Layer0$C$L0
 10
2.3327373835
 20
1.5355691088
  0
VERTEX
  8
Layer0$C$L0
 10
2.3290064729
 20
1.5354392452
  0
VERTEX
  8
Layer0$C$L0
 10
2.3234463751
 20
1.5347274306
  0
VERTEX
  8
Layer0$C$L0
 10
2.3185639604
 20
1.5336176174
  0
VERTEX
  8
Layer0$C$L0
 10
2.3144810217
 20
1.5322424593
  0
VERTEX
  8
Layer0$C$L0
 10
2.3129999908
 20
1.5315461398
  0
SEQEND
  8
Layer0$C$L0
  0
POLYLINE
  8
Layer0$C$L0
 10
0.0000000000
 20
0.0000000000
 30
0.0000000000
 66
     1
 70
     0
  0
VERTEX
  8
Layer0$C$L0
 10
2.3129999908
 20
2.0983207084
  0
VERTEX
  8
Layer0$C$L0
 10
2.3142871472
 20
2.0977128885
  0
VERTEX
  8
Layer0$C$L0
 10
2.3179599461
 20
2.0964288554
  0
VERTEX
  8
Layer0$C$L0
 10
2.3227363170
 20
2.0952800686
  0
VERTEX
  8
Layer0$C$L0
 10
2.3281172308
 20
2.0945115697
  0
VERTEX
  8
Layer0$C$L0
 10
2.3327358066
 20
2.0942879724
  0
SEQEND
  8
Layer0$C$L0
  0
POINT
  8
Layer120$C$L120
 10
2.3749999908
 20
1.8149370536
  0
POINT
  8
Layer120$C$L120
 10
2.3749999908
 20
1.8149370536
  0
POINT
  8
Layer120$C$L120
 10
3.1250000050
 20
1.8149370536
  0
DIMENSION
  8
Layer220$C$L220
  2
*D8
 70
     1
 10
3.2499999908
 20
3.0913184663
 11
2.1734418007
 21
3.0913184673
  3
DIM1
100
AcDbAlignedDimension
 13
2.9999999908
 23
2.3149370536
 14
3.2499999908
 24
2.3149370536
  0
INSERT
  8
Layer220$C$L220
  2
*D9
 10
0.0000000000
 20
0.0000000000
  0
CIRCLE
  5
8
100
AcDbEntity
  8
Layer0$C$L0
100
AcDbCircle
 10
3.1249999908
 20
1.8149370536
 40
0.6235000000
  0
CIRCLE
  5
9
100
AcDbEntity
  8
Layer0$C$L0
100
AcDbCircle
 10
3.1249999908
 20
1.8149370536
 40
0.6250000000
  0
CIRCLE
  5
a
100
AcDbEntity
  8
Layer0$C$L0
100
AcDbCircle
 10
3.1249999908
 20
1.8149370536
 40
0.7500000000
  0
LINE
  8
Layer0$C$L0
 10
2.9599999908
 20
2.3549370536
 11
3.2899999908
 21
2.3549370536
  0
LINE
  8
Layer0$C$L0
 10
3.2499999908
 20
2.3149370536
 11
2.9999999908
 21
2.3149370536
  0
LINE
  8
Layer0$C$L0
 10
2.9999999908
 20
2.3149370536
 11
2.9599999908
 21
2.3549370536
  0
LINE
  8
Layer0$C$L0
 10
3.2499999908
 20
2.3149370536
 11
3.2899999908
 21
2.3549370536
  0
LINE
  8
Layer0$C$L0
 10
2.5664273661
 20
2.0919729231
 11
2.5647678280
 21
2.0920018904
  0
LINE
  8
Layer0$C$L0
 10
2.5608220155
 20
1.5463046206
 11
2.5623888332
 21
1.5463378767
  0
LINE
  8
Layer0$C$L0
 10
2.5647678280
 20
1.5378722168
 11
2.5664273661
 21
1.5379011841
  0
LINE
  8
Layer0$C$L0
 10
3.2499999908
 20
1.3149370536
 11
3.2499999908
 21
2.3149370536
  0
LINE
  8
Layer0$C$L0
 10
2.9999999908
 20
1.3149370536
 11
3.2499999908
 21
1.3149370536
  0
LINE
  8
Layer0$C$L0
 10
2.9999999908
 20
1.3149370536
 11
2.9999999908
 21
2.3149370536
  0
LINE
  8
Layer0$C$L0
 10
3.2899999908
 20
1.2749370536
 11
3.2499999908
 21
1.3149370536
  0
LINE
  8
Layer0$C$L0
 10
3.2899999908
 20
1.2749370536
 11
3.2899999908
 21
2.3549370536
  0
LINE
  8
Layer0$C$L0
 10
2.9599999908
 20
1.2749370536
 11
2.9999999908
 21
1.3149370536
  0
LINE
  8
Layer0$C$L0
 10
2.9599999908
 20
1.2749370536
 11
3.2899999908
 21
1.2749370536
  0
LINE
  8
Layer0$C$L0
 10
2.9599999908
 20
1.2749370536
 11
2.9599999908
 21
2.3549370536
  0
ENDSEC
  0
EOF
