  0
SECTION
  2
HEADER
  9
$ACADVER
  1
AC1009
  9
$ANGBASE
 50
0.000000
  9
$ANGDIR
 70
     0
  9
$ATTDIA
 70
     0
  9
$ATTMODE
 70
     1
  9
$ATTREQ
 70
     1
  9
$AUNITS
 70
     0
  9
$AUPREC
 70
     0
  9
$AXISMODE
 70
     0
  9
$AXISUNIT
 10
0.000000
 20
0.000000
  9
$BLIPMODE
 70
     1
  9
$CECOLOR
 62
   256
  9
$CELTYPE
  6
BYLAYER
  9
$CHAMFERA
 40
0.000000
  9
$CHAMFERB
 40
0.000000
  9
$CLAYER
  8
0
  9
$COORDS
 70
     0
  9
$DIMALT
 70
     0
  9
$DIMALTD
 70
     2
  9
$DIMALTF
 40
25.400000
  9
$DIMAPOST
  1

  9
$DIMASO
 70
     1
  9
$DIMASZ
 40
0.153877
  9
$DIMBLK
  1

  9
$DIMBLK1
  1

  9
$DIMBLK2
  1

  9
$DIMCEN
 40
9.000000E-02
  9
$DIMDLE
 40
0.000000
  9
$DIMDLI
 40
0.380000
  9
$DIMEXE
 40
0.150000
  9
$DIMEXO
 40
0.100000
  9
$DIMLFAC
 40
1.000000
  9
$DIMLIM
 70
     0
  9
$DIMPOST
  1

  9
$DIMRND
 40
0.000000
  9
$DIMSCALE
 40
1.000000
  9
$DIMSE1
 70
     0
  9
$DIMSE2
 70
     0
  9
$DIMSHO
 70
     0
  9
$DIMTAD
 70
     0
  9
$DIMTIH
 70
     0
  9
$DIMTM
 40
0.000000
  9
$DIMTOH
 70
     1
  9
$DIMTOL
 70
     0
  9
$DIMTP
 40
0.000000
  9
$DIMTSZ
 40
0.000000
  9
$DIMTXT
 40
0.120000
  9
$DIMZIN
 70
     0
  9
$DRAGMODE
 70
     1
  9
$DWGCODEPAGE
  3
ansi_1252
  9
$ELEVATION
 40
0.000000
  9
$EXTMAX
 10
6.555219
 20
3.194216
 30
0.000000
  9
$EXTMIN
 10
-4.694781
 20
-5.555784
 30
0.000000
  9
$FASTZOOM
 70
     1
  9
$FILLETRAD
 40
6.250000E-02
  9
$FILLMODE
 70
     1
  9
$GRIDMODE
 70
     0
  9
$GRIDUNIT
 10
0.000000
 20
0.000000
  9
$INSBASE
 10
0.000000
 20
0.000000
 30
0.000000
  9
$LIMCHECK
 70
     0
  9
$LIMMAX
 10
6.555219
 20
3.194216
  9
$LIMMIN
 10
-4.694781
 20
-5.555784
  9
$LTSCALE
 40
1.000000
  9
$LUNITS
 70
     2
  9
$LUPREC
 70
     3
  9
$MEASUREMENT
 70
     0
  9
$MENU
  1
ACAD
  9
$MIRRTEXT
 70
     0
  9
$ORTHOMODE
 70
     0
  9
$OSMODE
 70
     0
  9
$PDMODE
 70
     0
  9
$PDSIZE
 40
0.000000
  9
$PLINEWID
 40
0.000000
  9
$PROXYGRAPHICS
 70
     0
  9
$QTEXTMODE
 70
     0
  9
$REGENMODE
 70
     1
  9
$SKETCHINC
 40
0.100000
  9
$SKPOLY
 70
     0
  9
$SNAPANG
 50
0.000000
  9
$SNAPBASE
 10
0.000000
 20
0.000000
  9
$SNAPISOPAIR
 70
     0
  9
$SNAPMODE
 70
     0
  9
$SNAPSTYLE
 70
     0
  9
$SNAPUNIT
 10
1.000000
 20
1.000000
  9
$SPLFRAME
 70
     0
  9
$SPLINESEGS
 70
     8
  9
$TDCREATE
 40
2453313.427014
  9
$TDINDWG
 40
0.000000
  9
$TDUPDATE
 40
2453313.427014
  9
$TDUSRTIMER
 40
0.000000
  9
$TEXTSIZE
 40
0.120000
  9
$TEXTSTYLE
  7
STANDARD
  9
$THICKNESS
 40
0.000000
  9
$TRACEWID
 40
5.000000E-02
  9
$USERI1
 70
     0
  9
$USERI2
 70
     0
  9
$USERI3
 70
     0
  9
$USERI4
 70
     0
  9
$USERI5
 70
     0
  9
$USERR1
 40
0.000000
  9
$USERR2
 40
0.000000
  9
$USERR3
 40
0.000000
  9
$USERR4
 40
0.000000
  9
$USERR5
 40
0.000000
  9
$USRTIMER
 70
     1
  9
$VIEWCTR
 10
0.930219
 20
-1.180784
  9
$VIEWDIR
 10
0.000000
 20
0.000000
 30
1.000000
  9
$VIEWSIZE
 40
8.750000
  0
ENDSEC
  0
SECTION
  2
TABLES
  0
TABLE
  2
LTYPE
 70
     3
  0
LTYPE
  2
SOLID
  3
Solid
 70
    64
 72
    65
 73
     0
 40
0.000000
  0
LTYPE
  2
CONSTRUCTION
  3
Construction
 70
    64
 72
    65
 73
     2
 40
4.000000E-02
 49
1.000000E-02
 49
-3.000000E-02
  0
LTYPE
  2
GAP
  3
Gap
 70
    64
 72
    65
 73
     3
 40
100.060000
 49
0.000000
 49
-6.000000E-02
 49
100.000000
  0
ENDTAB
  0
TABLE
  2
LAYER
 70
     2
  0
LAYER
  2
Layer0$C$L0
 70
     0
  6
SOLID
 62
     2
  0
LAYER
  2
Layer10$C$L10
 70
     0
  6
SOLID
 62
     4
  0
ENDTAB
  0
TABLE
  2
STYLE
 70
     1
  0
STYLE
  2
STANDARD
  3
txt
  4

 40
0.000000
 41
1.000000
 42
0.120000
 50
0.000000
 70
     0
 71
     0
  0
ENDTAB
  0
TABLE
  2
DIMSTYLE
 70
     2
  0
DIMSTYLE
  2
STANDARD
 70
     0
  3

  4

  5

  6

  7

 40
1.000000
 41
0.180000
 42
0.000000
 43
0.380000
 44
0.000000
 45
0.000000
 46
0.000000
 47
0.000000
 48
0.000000
140
0.156000
141
9.000000E-02
142
0.000000
143
1.000000
144
1.000000
145
0.000000
146
1.000000
147
7.800000E-02
 71
     0
 72
     0
 73
     0
 74
     0
 75
     0
 76
     0
 77
     3
 78
     0
170
     0
171
     0
172
     0
173
     0
174
     0
175
     0
176
     0
177
     0
178
     0
270
     2
271
     2
272
     2
273
     2
274
     2
275
     1
280
     0
281
     0
282
     0
283
     1
284
     0
285
     0
286
     0
287
     3
288
     0
  0
DIMSTYLE
  2
DIM1
 70
     1
  3

  4

  5

  6

  7

 40
1.000000
 41
0.153877
 42
0.100000
 43
0.380000
 44
0.150000
 45
0.000000
 46
0.000000
 47
0.000000
 48
0.000000
140
0.120000
141
9.000000E-02
142
0.000000
143
25.400000
144
1.000000
145
0.000000
146
1.000000
147
6.000000E-02
 71
     0
 72
     0
 73
     1
 74
     1
 75
     0
 76
     0
 77
     0
 78
     0
170
     1
171
     1
172
     0
173
     0
174
     0
175
     0
176
     0
177
     0
178
     0
270
     2
271
     2
272
     2
273
     2
274
     1
275
     1
280
     0
281
     0
282
     0
283
     1
284
     0
285
     0
286
     0
287
     3
288
     0
  0
ENDTAB
  0
TABLE
  2
APPID
  5
1
100
AcDbSymbolTable
 70
     1
  0
APPID
  5
2
100
AcDbSymbolTableRecord
100
AcDbRegAppTableRecord
  2
ACAD
 70
     0
  0
ENDTAB
  0
ENDSEC
  0
SECTION
  2
BLOCKS
  0
BLOCK
  8
Layer10$C$L10
  2
*D0
 70
     1
 10
0.000000
 20
0.000000
  0
SOLID
  8
Layer10$C$L10
 10
-3.081496
 20
-3.064562
 11
-3.081496
 21
-3.003694
 12
-3.234499
 22
-3.034128
 13
-3.234499
 23
-3.034128
  0
LINE
  8
Layer10$C$L10
 10
-3.234499
 20
-3.034128
 11
-1.403956
 21
-3.034128
  0
SOLID
  8
Layer10$C$L10
 10
1.081496
 20
-3.003694
 11
1.081496
 21
-3.064562
 12
1.234499
 22
-3.034128
 13
1.234499
 23
-3.034128
  0
LINE
  8
Layer10$C$L10
 10
1.234499
 20
-3.034128
 11
-0.596044
 21
-3.034128
  0
LINE
  8
Layer10$C$L10
  6
GAP
 10
-3.234499
 20
-0.350000
 11
-3.234499
 21
-3.184128
  0
LINE
  8
Layer10$C$L10
  6
GAP
 10
1.234499
 20
-0.350000
 11
1.234499
 21
-3.184128
  0
TEXT
  8
Layer10$C$L10
 10
-1.343956
 20
-3.094128
 40
0.120000
  1
  4.47
 72
     5
 11
-0.656044
 21
-3.094128
  0
LINE
  8
Layer10$C$L10
 10
-1.343956
 20
-3.184128
 11
-1.387912
 21
-3.184128
  0
LINE
  8
Layer10$C$L10
 10
-1.387912
 20
-3.184128
 11
-1.387912
 21
-3.424128
  0
LINE
  8
Layer10$C$L10
 10
-1.387912
 20
-3.424128
 11
-1.343956
 21
-3.424128
  0
LINE
  8
Layer10$C$L10
 10
-0.503956
 20
-3.184128
 11
-0.460000
 21
-3.184128
  0
TEXT
  8
Layer10$C$L10
 10
-1.343956
 20
-3.364128
 40
0.120000
  1
113.5mm
 72
     5
 11
-0.536044
 21
-3.364128
  0
LINE
  8
Layer10$C$L10
 10
-0.460000
 20
-3.184128
 11
-0.460000
 21
-3.424128
  0
LINE
  8
Layer10$C$L10
 10
-0.460000
 20
-3.424128
 11
-0.503956
 21
-3.424128
  0
ENDBLK
  8
Layer10$C$L10
  0
BLOCK
  8
Layer10$C$L10
  2
*D1
 70
     1
 10
0.000000
 20
0.000000
  0
SOLID
  8
Layer10$C$L10
 10
-2.612497
 20
-2.309354
 11
-2.612497
 21
-2.248486
 12
-2.765499
 22
-2.278920
 13
-2.765499
 23
-2.278920
  0
LINE
  8
Layer10$C$L10
 10
-2.765499
 20
-2.278920
 11
-1.343956
 21
-2.278920
  0
SOLID
  8
Layer10$C$L10
 10
0.612497
 20
-2.248486
 11
0.612497
 21
-2.309354
 12
0.765499
 22
-2.278920
 13
0.765499
 23
-2.278920
  0
LINE
  8
Layer10$C$L10
 10
0.765499
 20
-2.278920
 11
-0.656044
 21
-2.278920
  0
LINE
  8
Layer10$C$L10
  6
GAP
 10
-2.765499
 20
0.400000
 11
-2.765499
 21
-2.428920
  0
LINE
  8
Layer10$C$L10
  6
GAP
 10
0.765499
 20
0.400000
 11
0.765499
 21
-2.428920
  0
TEXT
  8
Layer10$C$L10
 10
-1.283956
 20
-2.338920
 40
0.120000
  1
 3.53
 72
     5
 11
-0.716044
 21
-2.338920
  0
LINE
  8
Layer10$C$L10
 10
-1.283956
 20
-2.428920
 11
-1.327912
 21
-2.428920
  0
LINE
  8
Layer10$C$L10
 10
-1.327912
 20
-2.428920
 11
-1.327912
 21
-2.668920
  0
LINE
  8
Layer10$C$L10
 10
-1.327912
 20
-2.668920
 11
-1.283956
 21
-2.668920
  0
LINE
  8
Layer10$C$L10
 10
-0.563956
 20
-2.428920
 11
-0.520000
 21
-2.428920
  0
TEXT
  8
Layer10$C$L10
 10
-1.283956
 20
-2.608920
 40
0.120000
  1
89.7mm
 72
     5
 11
-0.596044
 21
-2.608920
  0
LINE
  8
Layer10$C$L10
 10
-0.520000
 20
-2.428920
 11
-0.520000
 21
-2.668920
  0
LINE
  8
Layer10$C$L10
 10
-0.520000
 20
-2.668920
 11
-0.563956
 21
-2.668920
  0
ENDBLK
  8
Layer10$C$L10
  0
BLOCK
  8
Layer10$C$L10
  2
*D2
 70
     1
 10
0.000000
 20
0.000000
  0
SOLID
  8
Layer10$C$L10
 10
-2.300496
 20
-1.643578
 11
-2.300496
 21
-1.582710
 12
-2.453499
 22
-1.613144
 13
-2.453499
 23
-1.613144
  0
LINE
  8
Layer10$C$L10
 10
-2.453499
 20
-1.613144
 11
-1.343956
 21
-1.613144
  0
SOLID
  8
Layer10$C$L10
 10
0.300496
 20
-1.582710
 11
0.300496
 21
-1.643578
 12
0.453499
 22
-1.613144
 13
0.453499
 23
-1.613144
  0
LINE
  8
Layer10$C$L10
 10
0.453499
 20
-1.613144
 11
-0.656044
 21
-1.613144
  0
LINE
  8
Layer10$C$L10
  6
GAP
 10
-2.453499
 20
0.400000
 11
-2.453499
 21
-1.763144
  0
LINE
  8
Layer10$C$L10
  6
GAP
 10
0.453499
 20
0.400000
 11
0.453499
 21
-1.763144
  0
TEXT
  8
Layer10$C$L10
 10
-1.283956
 20
-1.673144
 40
0.120000
  1
 2.91
 72
     5
 11
-0.716044
 21
-1.673144
  0
LINE
  8
Layer10$C$L10
 10
-1.283956
 20
-1.763144
 11
-1.327912
 21
-1.763144
  0
LINE
  8
Layer10$C$L10
 10
-1.327912
 20
-1.763144
 11
-1.327912
 21
-2.003144
  0
LINE
  8
Layer10$C$L10
 10
-1.327912
 20
-2.003144
 11
-1.283956
 21
-2.003144
  0
LINE
  8
Layer10$C$L10
 10
-0.563956
 20
-1.763144
 11
-0.520000
 21
-1.763144
  0
TEXT
  8
Layer10$C$L10
 10
-1.283956
 20
-1.943144
 40
0.120000
  1
73.8mm
 72
     5
 11
-0.596044
 21
-1.943144
  0
LINE
  8
Layer10$C$L10
 10
-0.520000
 20
-1.763144
 11
-0.520000
 21
-2.003144
  0
LINE
  8
Layer10$C$L10
 10
-0.520000
 20
-2.003144
 11
-0.563956
 21
-2.003144
  0
ENDBLK
  8
Layer10$C$L10
  0
BLOCK
  8
Layer10$C$L10
  2
*D3
 70
     1
 10
0.000000
 20
0.000000
  0
SOLID
  8
Layer10$C$L10
 10
-1.956373
 20
-0.918180
 11
-1.956373
 21
-0.857312
 12
-2.109375
 22
-0.887746
 13
-2.109375
 23
-0.887746
  0
LINE
  8
Layer10$C$L10
 10
-2.109375
 20
-0.887746
 11
-1.343956
 21
-0.887746
  0
SOLID
  8
Layer10$C$L10
 10
-4.362749E-02
 20
-0.857312
 11
-4.362749E-02
 21
-0.918180
 12
0.109375
 22
-0.887746
 13
0.109375
 23
-0.887746
  0
LINE
  8
Layer10$C$L10
 10
0.109375
 20
-0.887746
 11
-0.656044
 21
-0.887746
  0
LINE
  8
Layer10$C$L10
  6
GAP
 10
-2.109375
 20
-0.600000
 11
-2.109375
 21
-1.037746
  0
LINE
  8
Layer10$C$L10
  6
GAP
 10
0.109375
 20
-0.600000
 11
0.109375
 21
-1.037746
  0
TEXT
  8
Layer10$C$L10
 10
-1.283956
 20
-0.947746
 40
0.120000
  1
 2.22
 72
     5
 11
-0.716044
 21
-0.947746
  0
LINE
  8
Layer10$C$L10
 10
-1.283956
 20
-1.037746
 11
-1.327912
 21
-1.037746
  0
LINE
  8
Layer10$C$L10
 10
-1.327912
 20
-1.037746
 11
-1.327912
 21
-1.277746
  0
LINE
  8
Layer10$C$L10
 10
-1.327912
 20
-1.277746
 11
-1.283956
 21
-1.277746
  0
LINE
  8
Layer10$C$L10
 10
-0.563956
 20
-1.037746
 11
-0.520000
 21
-1.037746
  0
TEXT
  8
Layer10$C$L10
 10
-1.283956
 20
-1.217746
 40
0.120000
  1
56.4mm
 72
     5
 11
-0.596044
 21
-1.217746
  0
LINE
  8
Layer10$C$L10
 10
-0.520000
 20
-1.037746
 11
-0.520000
 21
-1.277746
  0
LINE
  8
Layer10$C$L10
 10
-0.520000
 20
-1.277746
 11
-0.563956
 21
-1.277746
  0
ENDBLK
  8
Layer10$C$L10
  0
BLOCK
  8
Layer10$C$L10
  2
*D4
 70
     1
 10
0.000000
 20
0.000000
  0
SOLID
  8
Layer10$C$L10
 10
1.604434
 20
0.143996
 11
1.665302
 21
0.143996
 12
1.634868
 22
0.296999
 13
1.634868
 23
0.296999
  0
LINE
  8
Layer10$C$L10
 10
1.634868
 20
0.296999
 11
1.634868
 21
-0.103001
  0
SOLID
  8
Layer10$C$L10
 10
1.665302
 20
0.856002
 11
1.604434
 21
0.856002
 12
1.634868
 22
0.702999
 13
1.634868
 23
0.702999
  0
LINE
  8
Layer10$C$L10
 10
1.634868
 20
0.702999
 11
1.634868
 21
1.802997
  0
LINE
  8
Layer10$C$L10
  6
GAP
 10
0.865499
 20
0.296999
 11
1.784868
 21
0.296999
  0
LINE
  8
Layer10$C$L10
  6
GAP
 10
0.865499
 20
0.702999
 11
1.784868
 21
0.702999
  0
LINE
  8
Layer10$C$L10
 10
1.634868
 20
1.802997
 11
1.838549
 21
1.802997
  0
TEXT
  8
Layer10$C$L10
 10
1.898548
 20
1.742997
 40
0.120000
  1
  .41
 72
     5
 11
2.466461
 21
1.742997
  0
LINE
  8
Layer10$C$L10
 10
1.898548
 20
1.652997
 11
1.854592
 21
1.652997
  0
LINE
  8
Layer10$C$L10
 10
1.854592
 20
1.652997
 11
1.854592
 21
1.412997
  0
LINE
  8
Layer10$C$L10
 10
1.854592
 20
1.412997
 11
1.898548
 21
1.412997
  0
LINE
  8
Layer10$C$L10
 10
2.618548
 20
1.652997
 11
2.662504
 21
1.652997
  0
TEXT
  8
Layer10$C$L10
 10
1.898548
 20
1.472997
 40
0.120000
  1
10.3mm
 72
     5
 11
2.586461
 21
1.472997
  0
LINE
  8
Layer10$C$L10
 10
2.662504
 20
1.652997
 11
2.662504
 21
1.412997
  0
LINE
  8
Layer10$C$L10
 10
2.662504
 20
1.412997
 11
2.618548
 21
1.412997
  0
ENDBLK
  8
Layer10$C$L10
  0
BLOCK
  8
Layer10$C$L10
  2
*D5
 70
     1
 10
0.000000
 20
0.000000
  0
SOLID
  8
Layer10$C$L10
 10
3.606498
 20
-0.980287
 11
3.606498
 21
-1.041155
 12
3.759500
 22
-1.010721
 13
3.759500
 23
-1.010721
  0
LINE
  8
Layer10$C$L10
 10
3.759500
 20
-1.010721
 11
3.486197
 21
-1.010721
  0
SOLID
  8
Layer10$C$L10
 10
4.162503
 20
-1.041155
 11
4.162503
 21
-0.980287
 12
4.009500
 22
-1.010721
 13
4.009500
 23
-1.010721
  0
LINE
  8
Layer10$C$L10
 10
4.009500
 20
-1.010721
 11
4.409500
 21
-1.010721
  0
LINE
  8
Layer10$C$L10
  6
GAP
 10
3.759500
 20
-0.350000
 11
3.759500
 21
-1.160721
  0
LINE
  8
Layer10$C$L10
  6
GAP
 10
4.009500
 20
-0.350000
 11
4.009500
 21
-1.160721
  0
TEXT
  8
Layer10$C$L10
 10
2.978285
 20
-1.070721
 40
0.120000
  1
 .25
 72
     5
 11
3.426198
 21
-1.070721
  0
LINE
  8
Layer10$C$L10
 10
2.978285
 20
-1.160721
 11
2.934329
 21
-1.160721
  0
LINE
  8
Layer10$C$L10
 10
2.934329
 20
-1.160721
 11
2.934329
 21
-1.400721
  0
LINE
  8
Layer10$C$L10
 10
2.934329
 20
-1.400721
 11
2.978285
 21
-1.400721
  0
LINE
  8
Layer10$C$L10
 10
3.578285
 20
-1.160721
 11
3.622241
 21
-1.160721
  0
TEXT
  8
Layer10$C$L10
 10
2.978285
 20
-1.340721
 40
0.120000
  1
6.3mm
 72
     5
 11
3.546198
 21
-1.340721
  0
LINE
  8
Layer10$C$L10
 10
3.622241
 20
-1.160721
 11
3.622241
 21
-1.400721
  0
LINE
  8
Layer10$C$L10
 10
3.622241
 20
-1.400721
 11
3.578285
 21
-1.400721
  0
ENDBLK
  8
Layer10$C$L10
  0
BLOCK
  8
Layer10$C$L10
  2
*D6
 70
     1
 10
0.000000
 20
0.000000
  0
SOLID
  8
Layer10$C$L10
 10
3.037502
 20
-2.079776
 11
3.037502
 21
-2.018908
 12
2.884499
 22
-2.049342
 13
2.884499
 23
-2.049342
  0
LINE
  8
Layer10$C$L10
 10
2.884499
 20
-2.049342
 11
3.326974
 21
-2.049342
  0
SOLID
  8
Layer10$C$L10
 10
4.731497
 20
-2.018908
 11
4.731497
 21
-2.079776
 12
4.884499
 22
-2.049342
 13
4.884499
 23
-2.049342
  0
LINE
  8
Layer10$C$L10
 10
4.884499
 20
-2.049342
 11
4.286086
 21
-2.049342
  0
LINE
  8
Layer10$C$L10
  6
GAP
 10
2.884499
 20
0.400000
 11
2.884499
 21
-2.199342
  0
LINE
  8
Layer10$C$L10
  6
GAP
 10
4.884499
 20
0.400000
 11
4.884499
 21
-2.199342
  0
LINE
  8
Layer10$C$L10
 10
3.498903
 20
-1.959101
 11
3.395002
 21
-2.139390
  0
POLYLINE
  8
Layer10$C$L10
 10
0.000000
 20
0.000000
 30
0.000000
 66
     1
 70
     0
  0
VERTEX
  8
Layer10$C$L10
 10
3.502659
 20
-2.026334
  0
VERTEX
  8
Layer10$C$L10
 10
3.469982
 20
-1.993657
  0
VERTEX
  8
Layer10$C$L10
 10
3.423971
 20
-1.993657
  0
VERTEX
  8
Layer10$C$L10
 10
3.391551
 20
-2.026334
  0
VERTEX
  8
Layer10$C$L10
 10
3.391551
 20
-2.072345
  0
SEQEND
  8
Layer10$C$L10
  0
POLYLINE
  8
Layer10$C$L10
 10
0.000000
 20
0.000000
 30
0.000000
 66
     1
 70
     0
  0
VERTEX
  8
Layer10$C$L10
 10
3.391551
 20
-2.072345
  0
VERTEX
  8
Layer10$C$L10
 10
3.423971
 20
-2.104764
  0
VERTEX
  8
Layer10$C$L10
 10
3.469982
 20
-2.104764
  0
VERTEX
  8
Layer10$C$L10
 10
3.502659
 20
-2.072345
  0
VERTEX
  8
Layer10$C$L10
 10
3.502659
 20
-2.026334
  0
SEQEND
  8
Layer10$C$L10
  0
LINE
  8
Layer10$C$L10
 10
3.863811
 20
-2.037226
 11
3.838270
 21
-2.061265
  0
POLYLINE
  8
Layer10$C$L10
 10
0.000000
 20
0.000000
 30
0.000000
 66
     1
 70
     0
  0
VERTEX
  8
Layer10$C$L10
 10
3.863811
 20
-2.109342
  0
VERTEX
  8
Layer10$C$L10
 10
3.778171
 20
-2.109342
  0
VERTEX
  8
Layer10$C$L10
 10
3.778171
 20
-2.093379
  0
VERTEX
  8
Layer10$C$L10
 10
3.803903
 20
-2.069340
  0
VERTEX
  8
Layer10$C$L10
 10
3.838270
 20
-2.061265
  0
SEQEND
  8
Layer10$C$L10
  0
POLYLINE
  8
Layer10$C$L10
 10
0.000000
 20
0.000000
 30
0.000000
 66
     1
 70
     0
  0
VERTEX
  8
Layer10$C$L10
 10
3.778171
 20
-2.013188
  0
VERTEX
  8
Layer10$C$L10
 10
3.803903
 20
-1.989149
  0
VERTEX
  8
Layer10$C$L10
 10
3.838270
 20
-1.989149
  0
VERTEX
  8
Layer10$C$L10
 10
3.863811
 20
-2.013188
  0
VERTEX
  8
Layer10$C$L10
 10
3.863811
 20
-2.037226
  0
SEQEND
  8
Layer10$C$L10
  0
POLYLINE
  8
Layer10$C$L10
 10
0.000000
 20
0.000000
 30
0.000000
 66
     1
 70
     1
  0
VERTEX
  8
Layer10$C$L10
 10
3.932541
 20
-2.109342
  0
VERTEX
  8
Layer10$C$L10
 10
3.940992
 20
-2.109342
  0
VERTEX
  8
Layer10$C$L10
 10
3.940992
 20
-2.101360
  0
VERTEX
  8
Layer10$C$L10
 10
3.932541
 20
-2.101360
  0
VERTEX
  8
Layer10$C$L10
 10
3.932541
 20
-2.109342
  0
SEQEND
  8
Layer10$C$L10
  0
POLYLINE
  8
Layer10$C$L10
 10
0.000000
 20
0.000000
 30
0.000000
 66
     1
 70
     0
  0
VERTEX
  8
Layer10$C$L10
 10
4.103811
 20
-2.021451
  0
VERTEX
  8
Layer10$C$L10
 10
4.103811
 20
-2.077416
  0
VERTEX
  8
Layer10$C$L10
 10
4.078270
 20
-2.109342
  0
VERTEX
  8
Layer10$C$L10
 10
4.043903
 20
-2.109342
  0
VERTEX
  8
Layer10$C$L10
 10
4.018174
 20
-2.077416
  0
SEQEND
  8
Layer10$C$L10
  0
POLYLINE
  8
Layer10$C$L10
 10
0.000000
 20
0.000000
 30
0.000000
 66
     1
 70
     0
  0
VERTEX
  8
Layer10$C$L10
 10
4.018174
 20
-2.077416
  0
VERTEX
  8
Layer10$C$L10
 10
4.018174
 20
-2.021451
  0
VERTEX
  8
Layer10$C$L10
 10
4.043903
 20
-1.989149
  0
VERTEX
  8
Layer10$C$L10
 10
4.078270
 20
-1.989149
  0
VERTEX
  8
Layer10$C$L10
 10
4.103811
 20
-2.021451
  0
SEQEND
  8
Layer10$C$L10
  0
POLYLINE
  8
Layer10$C$L10
 10
0.000000
 20
0.000000
 30
0.000000
 66
     1
 70
     0
  0
VERTEX
  8
Layer10$C$L10
 10
4.223811
 20
-2.021451
  0
VERTEX
  8
Layer10$C$L10
 10
4.223811
 20
-2.077416
  0
VERTEX
  8
Layer10$C$L10
 10
4.198270
 20
-2.109342
  0
VERTEX
  8
Layer10$C$L10
 10
4.163903
 20
-2.109342
  0
VERTEX
  8
Layer10$C$L10
 10
4.138174
 20
-2.077416
  0
SEQEND
  8
Layer10$C$L10
  0
POLYLINE
  8
Layer10$C$L10
 10
0.000000
 20
0.000000
 30
0.000000
 66
     1
 70
     0
  0
VERTEX
  8
Layer10$C$L10
 10
4.138174
 20
-2.077416
  0
VERTEX
  8
Layer10$C$L10
 10
4.138174
 20
-2.021451
  0
VERTEX
  8
Layer10$C$L10
 10
4.163903
 20
-1.989149
  0
VERTEX
  8
Layer10$C$L10
 10
4.198270
 20
-1.989149
  0
VERTEX
  8
Layer10$C$L10
 10
4.223811
 20
-2.021451
  0
SEQEND
  8
Layer10$C$L10
  0
LINE
  8
Layer10$C$L10
 10
3.739534
 20
-2.280342
 11
3.695578
 21
-2.280342
  0
LINE
  8
Layer10$C$L10
 10
3.695578
 20
-2.280342
 11
3.695578
 21
-2.520342
  0
LINE
  8
Layer10$C$L10
 10
3.695578
 20
-2.520342
 11
3.739534
 21
-2.520342
  0
POLYLINE
  8
Layer10$C$L10
 10
0.000000
 20
0.000000
 30
0.000000
 66
     1
 70
     0
  0
VERTEX
  8
Layer10$C$L10
 10
3.743811
 20
-2.323377
  0
VERTEX
  8
Layer10$C$L10
 10
3.743811
 20
-2.363379
  0
VERTEX
  8
Layer10$C$L10
 10
3.726909
 20
-2.379342
  0
VERTEX
  8
Layer10$C$L10
 10
3.675358
 20
-2.379342
  0
VERTEX
  8
Layer10$C$L10
 10
3.658173
 20
-2.363379
  0
SEQEND
  8
Layer10$C$L10
  0
POLYLINE
  8
Layer10$C$L10
 10
0.000000
 20
0.000000
 30
0.000000
 66
     1
 70
     0
  0
VERTEX
  8
Layer10$C$L10
 10
3.743811
 20
-2.259149
  0
VERTEX
  8
Layer10$C$L10
 10
3.658173
 20
-2.259149
  0
VERTEX
  8
Layer10$C$L10
 10
3.658173
 20
-2.307226
  0
VERTEX
  8
Layer10$C$L10
 10
3.726909
 20
-2.307226
  0
VERTEX
  8
Layer10$C$L10
 10
3.743811
 20
-2.323377
  0
SEQEND
  8
Layer10$C$L10
  0
POLYLINE
  8
Layer10$C$L10
 10
0.000000
 20
0.000000
 30
0.000000
 66
     1
 70
     0
  0
VERTEX
  8
Layer10$C$L10
 10
3.863811
 20
-2.291451
  0
VERTEX
  8
Layer10$C$L10
 10
3.863811
 20
-2.347416
  0
VERTEX
  8
Layer10$C$L10
 10
3.838270
 20
-2.379342
  0
VERTEX
  8
Layer10$C$L10
 10
3.803903
 20
-2.379342
  0
VERTEX
  8
Layer10$C$L10
 10
3.778174
 20
-2.347416
  0
SEQEND
  8
Layer10$C$L10
  0
POLYLINE
  8
Layer10$C$L10
 10
0.000000
 20
0.000000
 30
0.000000
 66
     1
 70
     0
  0
VERTEX
  8
Layer10$C$L10
 10
3.778174
 20
-2.347416
  0
VERTEX
  8
Layer10$C$L10
 10
3.778174
 20
-2.291451
  0
VERTEX
  8
Layer10$C$L10
 10
3.803903
 20
-2.259149
  0
VERTEX
  8
Layer10$C$L10
 10
3.838270
 20
-2.259149
  0
VERTEX
  8
Layer10$C$L10
 10
3.863811
 20
-2.291451
  0
SEQEND
  8
Layer10$C$L10
  0
POLYLINE
  8
Layer10$C$L10
 10
0.000000
 20
0.000000
 30
0.000000
 66
     1
 70
     1
  0
VERTEX
  8
Layer10$C$L10
 10
3.932541
 20
-2.379342
  0
VERTEX
  8
Layer10$C$L10
 10
3.940992
 20
-2.379342
  0
VERTEX
  8
Layer10$C$L10
 10
3.940992
 20
-2.371360
  0
VERTEX
  8
Layer10$C$L10
 10
3.932541
 20
-2.371360
  0
VERTEX
  8
Layer10$C$L10
 10
3.932541
 20
-2.379342
  0
SEQEND
  8
Layer10$C$L10
  0
POLYLINE
  8
Layer10$C$L10
 10
0.000000
 20
0.000000
 30
0.000000
 66
     1
 70
     0
  0
VERTEX
  8
Layer10$C$L10
 10
4.086909
 20
-2.379342
  0
VERTEX
  8
Layer10$C$L10
 10
4.103811
 20
-2.363379
  0
VERTEX
  8
Layer10$C$L10
 10
4.103811
 20
-2.331265
  0
VERTEX
  8
Layer10$C$L10
 10
4.086909
 20
-2.315489
  0
SEQEND
  8
Layer10$C$L10
  0
POLYLINE
  8
Layer10$C$L10
 10
0.000000
 20
0.000000
 30
0.000000
 66
     1
 70
     0
  0
VERTEX
  8
Layer10$C$L10
 10
4.035358
 20
-2.315489
  0
VERTEX
  8
Layer10$C$L10
 10
4.018171
 20
-2.331265
  0
VERTEX
  8
Layer10$C$L10
 10
4.018171
 20
-2.363379
  0
VERTEX
  8
Layer10$C$L10
 10
4.035358
 20
-2.379342
  0
VERTEX
  8
Layer10$C$L10
 10
4.086909
 20
-2.379342
  0
SEQEND
  8
Layer10$C$L10
  0
POLYLINE
  8
Layer10$C$L10
 10
0.000000
 20
0.000000
 30
0.000000
 66
     1
 70
     0
  0
VERTEX
  8
Layer10$C$L10
 10
4.086909
 20
-2.259149
  0
VERTEX
  8
Layer10$C$L10
 10
4.103811
 20
-2.275676
  0
VERTEX
  8
Layer10$C$L10
 10
4.103811
 20
-2.299339
  0
VERTEX
  8
Layer10$C$L10
 10
4.086909
 20
-2.315489
  0
VERTEX
  8
Layer10$C$L10
 10
4.035358
 20
-2.315489
  0
SEQEND
  8
Layer10$C$L10
  0
POLYLINE
  8
Layer10$C$L10
 10
0.000000
 20
0.000000
 30
0.000000
 66
     1
 70
     0
  0
VERTEX
  8
Layer10$C$L10
 10
4.035358
 20
-2.315489
  0
VERTEX
  8
Layer10$C$L10
 10
4.018171
 20
-2.299339
  0
VERTEX
  8
Layer10$C$L10
 10
4.018171
 20
-2.275676
  0
VERTEX
  8
Layer10$C$L10
 10
4.035358
 20
-2.259149
  0
VERTEX
  8
Layer10$C$L10
 10
4.086909
 20
-2.259149
  0
SEQEND
  8
Layer10$C$L10
  0
LINE
  8
Layer10$C$L10
 10
4.138174
 20
-2.379342
 11
4.138174
 21
-2.299339
  0
POLYLINE
  8
Layer10$C$L10
 10
0.000000
 20
0.000000
 30
0.000000
 66
     1
 70
     0
  0
VERTEX
  8
Layer10$C$L10
 10
4.180992
 20
-2.379342
  0
VERTEX
  8
Layer10$C$L10
 10
4.180992
 20
-2.315489
  0
VERTEX
  8
Layer10$C$L10
 10
4.163903
 20
-2.299339
  0
VERTEX
  8
Layer10$C$L10
 10
4.155358
 20
-2.299339
  0
VERTEX
  8
Layer10$C$L10
 10
4.138174
 20
-2.315489
  0
SEQEND
  8
Layer10$C$L10
  0
POLYLINE
  8
Layer10$C$L10
 10
0.000000
 20
0.000000
 30
0.000000
 66
     1
 70
     0
  0
VERTEX
  8
Layer10$C$L10
 10
4.223811
 20
-2.379342
  0
VERTEX
  8
Layer10$C$L10
 10
4.223811
 20
-2.315489
  0
VERTEX
  8
Layer10$C$L10
 10
4.206909
 20
-2.299339
  0
VERTEX
  8
Layer10$C$L10
 10
4.198270
 20
-2.299339
  0
VERTEX
  8
Layer10$C$L10
 10
4.180992
 20
-2.315489
  0
SEQEND
  8
Layer10$C$L10
  0
LINE
  8
Layer10$C$L10
 10
4.258174
 20
-2.379342
 11
4.258174
 21
-2.299339
  0
POLYLINE
  8
Layer10$C$L10
 10
0.000000
 20
0.000000
 30
0.000000
 66
     1
 70
     0
  0
VERTEX
  8
Layer10$C$L10
 10
4.300992
 20
-2.379342
  0
VERTEX
  8
Layer10$C$L10
 10
4.300992
 20
-2.315489
  0
VERTEX
  8
Layer10$C$L10
 10
4.283903
 20
-2.299339
  0
VERTEX
  8
Layer10$C$L10
 10
4.275358
 20
-2.299339
  0
VERTEX
  8
Layer10$C$L10
 10
4.258174
 20
-2.315489
  0
SEQEND
  8
Layer10$C$L10
  0
POLYLINE
  8
Layer10$C$L10
 10
0.000000
 20
0.000000
 30
0.000000
 66
     1
 70
     0
  0
VERTEX
  8
Layer10$C$L10
 10
4.343811
 20
-2.379342
  0
VERTEX
  8
Layer10$C$L10
 10
4.343811
 20
-2.315489
  0
VERTEX
  8
Layer10$C$L10
 10
4.326909
 20
-2.299339
  0
VERTEX
  8
Layer10$C$L10
 10
4.318270
 20
-2.299339
  0
VERTEX
  8
Layer10$C$L10
 10
4.300992
 20
-2.315489
  0
SEQEND
  8
Layer10$C$L10
  0
LINE
  8
Layer10$C$L10
 10
4.623158
 20
-2.280342
 11
4.667114
 21
-2.280342
  0
LINE
  8
Layer10$C$L10
 10
4.667114
 20
-2.280342
 11
4.667114
 21
-2.520342
  0
LINE
  8
Layer10$C$L10
 10
4.667114
 20
-2.520342
 11
4.623158
 21
-2.520342
  0
ENDBLK
  8
Layer10$C$L10
  0
BLOCK
  8
Layer10$C$L10
  2
*D7
 70
     1
 10
0.000000
 20
0.000000
  0
SOLID
  8
Layer10$C$L10
 10
2.364011
 20
-9.699746E-02
 11
2.303143
 21
-9.699746E-02
 12
2.333577
 22
-0.250000
 13
2.333577
 23
-0.250000
  0
LINE
  8
Layer10$C$L10
 10
2.333577
 20
-0.250000
 11
2.333577
 21
0.245000
  0
SOLID
  8
Layer10$C$L10
 10
2.303143
 20
1.096998
 11
2.364011
 21
1.096998
 12
2.333577
 22
1.250000
 13
2.333577
 23
1.250000
  0
LINE
  8
Layer10$C$L10
 10
2.333577
 20
1.250000
 11
2.333577
 21
0.755000
  0
LINE
  8
Layer10$C$L10
  6
GAP
 10
1.334499
 20
-0.250000
 11
2.483577
 21
-0.250000
  0
LINE
  8
Layer10$C$L10
 10
1.699920
 20
1.250000
 11
2.483577
 21
1.250000
  0
TEXT
  8
Layer10$C$L10
 10
1.989621
 20
0.575000
 40
0.120000
  1
 1.50
 72
     5
 11
2.557533
 21
0.575000
  0
LINE
  8
Layer10$C$L10
 10
1.989621
 20
0.485000
 11
1.945665
 21
0.485000
  0
LINE
  8
Layer10$C$L10
 10
1.945665
 20
0.485000
 11
1.945665
 21
0.245000
  0
LINE
  8
Layer10$C$L10
 10
1.945665
 20
0.245000
 11
1.989621
 21
0.245000
  0
LINE
  8
Layer10$C$L10
 10
2.709621
 20
0.485000
 11
2.753577
 21
0.485000
  0
TEXT
  8
Layer10$C$L10
 10
1.989621
 20
0.305000
 40
0.120000
  1
38.1mm
 72
     5
 11
2.677533
 21
0.305000
  0
LINE
  8
Layer10$C$L10
 10
2.753577
 20
0.485000
 11
2.753577
 21
0.245000
  0
LINE
  8
Layer10$C$L10
 10
2.753577
 20
0.245000
 11
2.709621
 21
0.245000
  0
ENDBLK
  8
Layer10$C$L10
  0
BLOCK
  8
Layer0$C$L0
  2
*X0
 70
     1
 10
0.000000
 20
0.000000
  0
LINE
  8
Layer0$C$L0
 10
-3.4697809219
 20
-3.9107835293
 11
-3.3072805405
 21
-3.9107835293
  0
LINE
  8
Layer0$C$L0
 10
-3.1572809219
 20
-3.9107835293
 11
-3.2643629445
 21
-3.9107835293
  0
LINE
  8
Layer0$C$L0
 10
-2.8697805405
 20
-3.9107835293
 11
-2.9097814560
 21
-3.9107835293
  0
LINE
  8
Layer0$C$L0
 10
-2.6517791748
 20
-3.9107835293
 11
-2.6917810440
 21
-3.9107835293
  0
LINE
  8
Layer0$C$L0
 10
-2.5137786865
 20
-3.9107835293
 11
-2.5537796021
 21
-3.9107835293
  0
LINE
  8
Layer0$C$L0
 10
-2.4337787628
 20
-3.9107835293
 11
-2.4737796783
 21
-3.9107835293
  0
LINE
  8
Layer0$C$L0
 10
-2.2957782745
 20
-3.9107835293
 11
-2.3357791901
 21
-3.9107835293
  0
LINE
  8
Layer0$C$L0
 10
-2.2157783508
 20
-3.9107835293
 11
-2.2557792664
 21
-3.9107835293
  0
LINE
  8
Layer0$C$L0
 10
-1.9977798462
 20
-3.9107835293
 11
-2.0377788544
 21
-3.9107835293
  0
LINE
  8
Layer0$C$L0
 10
-1.8597793579
 20
-3.9107835293
 11
-1.8997783661
 21
-3.9107835293
  0
ENDBLK
  8
Layer0$C$L0
  0
ENDSEC
  0
SECTION
  2
ENTITIES
  0
TEXT
  8
Layer10$C$L10
 10
-1.789780
 20
-4.025785
 40
8.000000E-02
  1
NEWBURYPORT,MA 01950
 41
1.011842
 72
     5
 11
-0.251779
 21
-4.025785
  0
TEXT
  8
Layer10$C$L10
 10
-1.789780
 20
-3.905785
 40
8.000000E-02
  1
374 MERRIMAC STREET
 41
1.013889
 72
     5
 11
-0.329779
 21
-3.905785
  0
TEXT
  8
Layer10$C$L10
 10
3.537220
 20
-4.000418
 40
8.000001E-02
  1
NOT TO BE USED FOR PRODUCTION
 41
0.834821
 72
     5
 11
5.407220
 21
-4.000418
  0
TEXT
  8
Layer10$C$L10
 10
3.894720
 20
-3.880418
 40
8.000001E-02
  1
OUTLINE DIMENSIONS
 41
0.849265
 72
     5
 11
5.049720
 21
-3.880418
  0
LINE
  8
Layer0$C$L0
 10
5.650219
 20
-4.680784
 11
5.650219
 21
2.319216
  0
LINE
  8
Layer0$C$L0
 10
-3.599780
 20
-4.680784
 11
5.650219
 21
-4.680784
  0
LINE
  8
Layer0$C$L0
 10
5.700219
 20
-4.730784
 11
5.700219
 21
2.369216
  0
LINE
  8
Layer0$C$L0
 10
-3.649780
 20
-4.730784
 11
5.700219
 21
-4.730784
  0
LINE
  8
Layer0$C$L0
 10
-3.649780
 20
-4.730784
 11
-3.649780
 21
2.369216
  0
LINE
  8
Layer0$C$L0
 10
-3.599780
 20
-4.680784
 11
-3.599780
 21
2.319216
  0
LINE
  8
Layer0$C$L0
 10
-9.978104E-02
 20
-4.680784
 11
-9.978104E-02
 21
-3.660784
  0
LINE
  8
Layer0$C$L0
 10
5.650219
 20
-3.660784
 11
-3.599780
 21
-3.660784
  0
TEXT
  8
Layer10$C$L10
 10
-3.569905
 20
-4.640784
 40
8.000001E-02
  1
DATE:
 41
0.968750
 72
     5
 11
-3.259905
 21
-4.640784
  0
TEXT
  8
Layer10$C$L10
 10
-1.765585
 20
-4.640784
 40
8.000001E-02
  1
DATE:
 41
0.968750
 72
     5
 11
-1.455585
 21
-4.640784
  0
LINE
  8
Layer0$C$L0
 10
3.300220
 20
-4.159685
 11
5.650219
 21
-4.159685
  0
LINE
  8
Layer0$C$L0
 10
3.300220
 20
-4.680784
 11
3.300220
 21
-3.660784
  0
LINE
  8
Layer0$C$L0
 10
-3.649780
 20
2.369216
 11
5.700219
 21
2.369216
  0
LINE
  8
Layer0$C$L0
 10
-3.599780
 20
2.319216
 11
5.650219
 21
2.319216
  0
TEXT
  8
Layer10$C$L10
 10
-3.569905
 20
-4.460785
 40
8.000001E-02
  1
SIGN:
 41
0.968750
 72
     5
 11
-3.259905
 21
-4.460785
  0
TEXT
  8
Layer10$C$L10
 10
-1.765585
 20
-4.460784
 40
8.000001E-02
  1
SIGN:
 41
0.968750
 72
     5
 11
-1.455585
 21
-4.460784
  0
LINE
  8
Layer0$C$L0
 10
-1.849781
 20
-4.680784
 11
-1.849781
 21
-4.100786
  0
LINE
  8
Layer0$C$L0
 10
-9.978104E-02
 20
-4.100786
 11
-3.599780
 21
-4.100786
  0
TEXT
  8
Layer10$C$L10
 10
-3.314084
 20
-4.220786
 40
8.000000E-02
  1
%%uPRODUCT MANAGER%%u
 72
     5
 11
-2.135476
 21
-4.220786
  0
TEXT
  8
Layer10$C$L10
 10
-1.564085
 20
-4.220786
 40
8.000000E-02
  1
%%uDESIGN ENGINEER%%u
 72
     5
 11
-0.385477
 21
-4.220786
  0
TEXT
  8
Layer10$C$L10
 10
3.537220
 20
-4.000418
 40
8.000001E-02
  1
NOT TO BE USED FOR PRODUCTION
 41
0.834821
 72
     5
 11
5.407220
 21
-4.000418
  0
TEXT
  8
Layer10$C$L10
 10
3.894720
 20
-3.880418
 40
8.000001E-02
  1
OUTLINE DIMENSIONS
 41
0.849265
 72
     5
 11
5.049720
 21
-3.880418
  0
INSERT
  8
Layer0$C$L0
  2
*X0
 10
0.000000
 20
0.000000
  0
LINE
  8
Layer0$C$L0
 10
-3.469781
 20
-3.825785
 11
-3.307281
 21
-3.825785
  0
LINE
  8
Layer0$C$L0
 10
-3.307281
 20
-3.825785
 11
-3.307281
 21
-3.925786
  0
LINE
  8
Layer0$C$L0
 10
-3.307281
 20
-3.925786
 11
-3.469781
 21
-3.925786
  0
LINE
  8
Layer0$C$L0
 10
-3.469781
 20
-3.925786
 11
-3.469781
 21
-3.825785
  0
LINE
  8
Layer0$C$L0
 10
-3.369781
 20
-3.725786
 11
-3.232282
 21
-3.875786
  0
LINE
  8
Layer0$C$L0
 10
-3.232282
 20
-3.875786
 11
-3.369781
 21
-4.025785
  0
LINE
  8
Layer0$C$L0
 10
-3.369781
 20
-4.025785
 11
-3.257281
 21
-4.025785
  0
LINE
  8
Layer0$C$L0
 10
-3.257281
 20
-4.025785
 11
-3.257281
 21
-3.925786
  0
LINE
  8
Layer0$C$L0
 10
-3.257281
 20
-3.925786
 11
-3.157281
 21
-3.925786
  0
LINE
  8
Layer0$C$L0
 10
-3.157281
 20
-3.925786
 11
-3.157281
 21
-3.825785
  0
LINE
  8
Layer0$C$L0
 10
-3.157281
 20
-3.825785
 11
-3.257281
 21
-3.825785
  0
LINE
  8
Layer0$C$L0
 10
-3.257281
 20
-3.825785
 11
-3.257281
 21
-3.725786
  0
LINE
  8
Layer0$C$L0
 10
-3.257281
 20
-3.725786
 11
-3.369781
 21
-3.725786
  0
LINE
  8
Layer0$C$L0
 10
-2.077778
 20
-4.015786
 11
-2.077778
 21
-4.025785
  0
LINE
  8
Layer0$C$L0
 10
-2.255779
 20
-3.825785
 11
-2.215778
 21
-3.825785
  0
LINE
  8
Layer0$C$L0
 10
-2.335779
 20
-3.825785
 11
-2.295778
 21
-3.825785
  0
LINE
  8
Layer0$C$L0
 10
-2.473780
 20
-3.825785
 11
-2.433779
 21
-3.825785
  0
LINE
  8
Layer0$C$L0
 10
-1.859779
 20
-3.975786
 11
-1.859779
 21
-3.875786
  0
LINE
  8
Layer0$C$L0
 10
-2.037779
 20
-4.025785
 11
-2.037779
 21
-3.825785
  0
LINE
  8
Layer0$C$L0
 10
-1.899778
 20
-3.985785
 11
-1.899778
 21
-3.865785
  0
LINE
  8
Layer0$C$L0
 10
-1.997780
 20
-4.015786
 11
-1.997780
 21
-3.835786
  0
LINE
  8
Layer0$C$L0
 10
-2.037779
 20
-4.025785
 11
-1.909779
 21
-4.025785
  0
LINE
  8
Layer0$C$L0
 10
-2.037779
 20
-3.825785
 11
-1.909779
 21
-3.825785
  0
LINE
  8
Layer0$C$L0
 10
-1.997780
 20
-4.015786
 11
-1.929779
 21
-4.015786
  0
LINE
  8
Layer0$C$L0
 10
-1.997780
 20
-3.835786
 11
-1.929779
 21
-3.835786
  0
ARC
  8
Layer0$C$L0
 10
-1.909779
 20
-3.975786
 40
5.000000E-02
100
AcDbArc
 50
270.000001
 51
360.000010
  0
ARC
  8
Layer0$C$L0
 10
-1.909779
 20
-3.875786
 40
5.000000E-02
100
AcDbArc
 50
0.000000
 51
90.000003
  0
ARC
  8
Layer0$C$L0
 10
-1.929779
 20
-3.985785
 40
3.000000E-02
100
AcDbArc
 50
270.000001
 51
360.000010
  0
ARC
  8
Layer0$C$L0
 10
-1.929779
 20
-3.865785
 40
3.000000E-02
100
AcDbArc
 50
1.001791E-05
 51
89.999989
  0
LINE
  8
Layer0$C$L0
 10
-2.255779
 20
-4.025785
 11
-2.255779
 21
-3.825785
  0
LINE
  8
Layer0$C$L0
 10
-2.215778
 20
-4.015786
 11
-2.215778
 21
-3.825785
  0
LINE
  8
Layer0$C$L0
 10
-2.255779
 20
-4.025785
 11
-2.077778
 21
-4.025785
  0
LINE
  8
Layer0$C$L0
 10
-2.215778
 20
-4.015786
 11
-2.077778
 21
-4.015786
  0
LINE
  8
Layer0$C$L0
 10
-2.513779
 20
-3.975786
 11
-2.513779
 21
-3.875786
  0
LINE
  8
Layer0$C$L0
 10
-2.691781
 20
-3.975786
 11
-2.691781
 21
-3.875786
  0
LINE
  8
Layer0$C$L0
 10
-2.553780
 20
-3.985785
 11
-2.553780
 21
-3.865785
  0
LINE
  8
Layer0$C$L0
 10
-2.651779
 20
-3.985785
 11
-2.651779
 21
-3.865785
  0
LINE
  8
Layer0$C$L0
 10
-2.641779
 20
-4.025785
 11
-2.563780
 21
-4.025785
  0
LINE
  8
Layer0$C$L0
 10
-2.641779
 20
-3.825785
 11
-2.563780
 21
-3.825785
  0
LINE
  8
Layer0$C$L0
 10
-2.621780
 20
-4.015786
 11
-2.583778
 21
-4.015786
  0
LINE
  8
Layer0$C$L0
 10
-2.621780
 20
-3.835786
 11
-2.583778
 21
-3.835786
  0
ARC
  8
Layer0$C$L0
 10
-2.641779
 20
-3.975786
 40
5.000000E-02
100
AcDbArc
 50
180.000005
 51
270.000001
  0
ARC
  8
Layer0$C$L0
 10
-2.563780
 20
-3.975786
 40
5.000000E-02
100
AcDbArc
 50
270.000001
 51
360.000010
  0
ARC
  8
Layer0$C$L0
 10
-2.563780
 20
-3.875786
 40
5.000000E-02
100
AcDbArc
 50
0.000000
 51
90.000003
  0
ARC
  8
Layer0$C$L0
 10
-2.641779
 20
-3.875786
 40
5.000000E-02
100
AcDbArc
 50
90.000003
 51
180.000005
  0
ARC
  8
Layer0$C$L0
 10
-2.621780
 20
-3.985785
 40
3.000000E-02
100
AcDbArc
 50
180.000005
 51
270.000001
  0
ARC
  8
Layer0$C$L0
 10
-2.583778
 20
-3.985785
 40
3.000000E-02
100
AcDbArc
 50
270.000001
 51
360.000010
  0
ARC
  8
Layer0$C$L0
 10
-2.583778
 20
-3.865785
 40
3.000000E-02
100
AcDbArc
 50
1.001791E-05
 51
89.999989
  0
ARC
  8
Layer0$C$L0
 10
-2.621780
 20
-3.865785
 40
3.000000E-02
100
AcDbArc
 50
90.000003
 51
180.000005
  0
ARC
  8
Layer0$C$L0
 10
-2.791781
 20
-3.958786
 40
2.000000E-02
100
AcDbArc
 50
0.000000
 51
90.000003
  0
LINE
  8
Layer0$C$L0
 10
-2.731780
 20
-3.975786
 11
-2.731780
 21
-3.925786
  0
LINE
  8
Layer0$C$L0
 10
-2.771781
 20
-3.985785
 11
-2.771781
 21
-3.958786
  0
LINE
  8
Layer0$C$L0
 10
-2.771781
 20
-3.900785
 11
-2.731780
 21
-3.900785
  0
LINE
  8
Layer0$C$L0
 10
-2.731780
 20
-3.900785
 11
-2.731780
 21
-3.875786
  0
LINE
  8
Layer0$C$L0
 10
-2.909781
 20
-3.975786
 11
-2.909781
 21
-3.875786
  0
LINE
  8
Layer0$C$L0
 10
-2.771781
 20
-3.900785
 11
-2.771781
 21
-3.865785
  0
LINE
  8
Layer0$C$L0
 10
-2.869781
 20
-3.985785
 11
-2.869781
 21
-3.865785
  0
LINE
  8
Layer0$C$L0
 10
-2.859780
 20
-4.025785
 11
-2.781781
 21
-4.025785
  0
LINE
  8
Layer0$C$L0
 10
-2.859780
 20
-3.825785
 11
-2.781781
 21
-3.825785
  0
LINE
  8
Layer0$C$L0
 10
-2.839782
 20
-4.015786
 11
-2.801780
 21
-4.015786
  0
LINE
  8
Layer0$C$L0
 10
-2.839782
 20
-3.835786
 11
-2.801780
 21
-3.835786
  0
ARC
  8
Layer0$C$L0
 10
-2.859780
 20
-3.975786
 40
5.000000E-02
100
AcDbArc
 50
180.000005
 51
270.000001
  0
ARC
  8
Layer0$C$L0
 10
-2.781781
 20
-3.975786
 40
5.000000E-02
100
AcDbArc
 50
270.000001
 51
360.000010
  0
ARC
  8
Layer0$C$L0
 10
-2.781781
 20
-3.875786
 40
5.000000E-02
100
AcDbArc
 50
0.000000
 51
90.000003
  0
ARC
  8
Layer0$C$L0
 10
-2.859780
 20
-3.875786
 40
5.000000E-02
100
AcDbArc
 50
90.000003
 51
180.000005
  0
ARC
  8
Layer0$C$L0
 10
-2.839782
 20
-3.985785
 40
3.000000E-02
100
AcDbArc
 50
180.000005
 51
270.000001
  0
ARC
  8
Layer0$C$L0
 10
-2.801780
 20
-3.985785
 40
3.000000E-02
100
AcDbArc
 50
270.000001
 51
360.000010
  0
ARC
  8
Layer0$C$L0
 10
-2.801780
 20
-3.865785
 40
3.000000E-02
100
AcDbArc
 50
1.001791E-05
 51
89.999989
  0
ARC
  8
Layer0$C$L0
 10
-2.839782
 20
-3.865785
 40
3.000000E-02
100
AcDbArc
 50
90.000003
 51
180.000005
  0
ARC
  8
Layer0$C$L0
 10
-2.365778
 20
-3.985785
 40
3.000000E-02
100
AcDbArc
 50
270.000001
 51
360.000010
  0
ARC
  8
Layer0$C$L0
 10
-2.403780
 20
-3.985785
 40
3.000000E-02
100
AcDbArc
 50
180.000005
 51
270.000001
  0
ARC
  8
Layer0$C$L0
 10
-2.345779
 20
-3.975786
 40
5.000000E-02
100
AcDbArc
 50
270.000001
 51
360.000010
  0
ARC
  8
Layer0$C$L0
 10
-2.423779
 20
-3.975786
 40
5.000000E-02
100
AcDbArc
 50
180.000005
 51
270.000001
  0
LINE
  8
Layer0$C$L0
 10
-2.403780
 20
-4.015786
 11
-2.365778
 21
-4.015786
  0
LINE
  8
Layer0$C$L0
 10
-2.423779
 20
-4.025785
 11
-2.345779
 21
-4.025785
  0
LINE
  8
Layer0$C$L0
 10
-2.433779
 20
-3.985785
 11
-2.433779
 21
-3.825785
  0
LINE
  8
Layer0$C$L0
 10
-2.335779
 20
-3.985785
 11
-2.335779
 21
-3.825785
  0
LINE
  8
Layer0$C$L0
 10
-2.473780
 20
-3.975786
 11
-2.473780
 21
-3.825785
  0
LINE
  8
Layer0$C$L0
 10
-2.295778
 20
-3.975786
 11
-2.295778
 21
-3.825785
  0
LINE
  8
Layer0$C$L0
 10
-2.816781
 20
-3.938785
 11
-2.816781
 21
-3.925786
  0
LINE
  8
Layer0$C$L0
 10
-2.816781
 20
-3.938785
 11
-2.791781
 21
-3.938785
  0
LINE
  8
Layer0$C$L0
 10
-2.816781
 20
-3.925786
 11
-2.731780
 21
-3.925786
  0
POLYLINE
  8
Layer0$C$L0
 10
0.0000000000
 20
0.0000000000
 30
0.0000000000
 66
     1
 70
     1
  0
VERTEX
  8
Layer0$C$L0
 10
-3.4697809219
 20
-3.8257853985
  0
VERTEX
  8
Layer0$C$L0
 10
-3.3072805405
 20
-3.8257853985
  0
VERTEX
  8
Layer0$C$L0
 10
-3.3072805405
 20
-3.9257857800
  0
VERTEX
  8
Layer0$C$L0
 10
-3.4697809219
 20
-3.9257857800
  0
SEQEND
  8
Layer0$C$L0
  0
POLYLINE
  8
Layer0$C$L0
 10
0.0000000000
 20
0.0000000000
 30
0.0000000000
 66
     1
 70
     1
  0
VERTEX
  8
Layer0$C$L0
 10
-3.3697805405
 20
-3.7257859707
  0
VERTEX
  8
Layer0$C$L0
 10
-3.2322816849
 20
-3.8757855892
  0
VERTEX
  8
Layer0$C$L0
 10
-3.3697805405
 20
-4.0257852077
  0
VERTEX
  8
Layer0$C$L0
 10
-3.2572813034
 20
-4.0257852077
  0
VERTEX
  8
Layer0$C$L0
 10
-3.2572813034
 20
-3.9257857800
  0
VERTEX
  8
Layer0$C$L0
 10
-3.1572809219
 20
-3.9257857800
  0
VERTEX
  8
Layer0$C$L0
 10
-3.1572809219
 20
-3.8257853985
  0
VERTEX
  8
Layer0$C$L0
 10
-3.2572813034
 20
-3.8257853985
  0
VERTEX
  8
Layer0$C$L0
 10
-3.2572813034
 20
-3.7257859707
  0
SEQEND
  8
Layer0$C$L0
  0
POLYLINE
  8
Layer0$C$L0
 10
0.0000000000
 20
0.0000000000
 30
0.0000000000
 66
     1
 70
     1
  0
VERTEX
  8
Layer0$C$L0
 10
-2.0777778625
 20
-4.0157859325
  0
VERTEX
  8
Layer0$C$L0
 10
-2.0777778625
 20
-4.0257852077
  0
VERTEX
  8
Layer0$C$L0
 10
-2.2557792664
 20
-4.0257852077
  0
VERTEX
  8
Layer0$C$L0
 10
-2.2557792664
 20
-3.8257853985
  0
VERTEX
  8
Layer0$C$L0
 10
-2.2157783508
 20
-3.8257853985
  0
VERTEX
  8
Layer0$C$L0
 10
-2.2157783508
 20
-4.0157859325
  0
SEQEND
  8
Layer0$C$L0
  0
POLYLINE
  8
Layer0$C$L0
 10
0.0000000000
 20
0.0000000000
 30
0.0000000000
 66
     1
 70
     1
  0
VERTEX
  8
Layer0$C$L0
 10
-1.8997783661
 20
-3.9857852459
  0
VERTEX
  8
Layer0$C$L0
 10
-1.8997783661
 20
-3.8657853603
  0
VERTEX
  8
Layer0$C$L0
 10
-1.8999235120
 20
-3.8628448417
  0
VERTEX
  8
Layer0$C$L0
 10
-1.9003554957
 20
-3.8599326470
  0
VERTEX
  8
Layer0$C$L0
 10
-1.9010708442
 20
-3.8570768172
  0
VERTEX
  8
Layer0$C$L0
 10
-1.9020626683
 20
-3.8543048553
  0
VERTEX
  8
Layer0$C$L0
 10
-1.9033214162
 20
-3.8516434570
  0
VERTEX
  8
Layer0$C$L0
 10
-1.9048349655
 20
-3.8491182528
  0
VERTEX
  8
Layer0$C$L0
 10
-1.9065887399
 20
-3.8467535619
  0
VERTEX
  8
Layer0$C$L0
 10
-1.9085658496
 20
-3.8445721576
  0
VERTEX
  8
Layer0$C$L0
 10
-1.9107472539
 20
-3.8425950479
  0
VERTEX
  8
Layer0$C$L0
 10
-1.9131119447
 20
-3.8408412735
  0
VERTEX
  8
Layer0$C$L0
 10
-1.9156371488
 20
-3.8393277241
  0
VERTEX
  8
Layer0$C$L0
 10
-1.9182985472
 20
-3.8380689762
  0
VERTEX
  8
Layer0$C$L0
 10
-1.9210705090
 20
-3.8370771520
  0
VERTEX
  8
Layer0$C$L0
 10
-1.9239263388
 20
-3.8363618035
  0
VERTEX
  8
Layer0$C$L0
 10
-1.9268385335
 20
-3.8359298197
  0
VERTEX
  8
Layer0$C$L0
 10
-1.9297790469
 20
-3.8357853610
  0
VERTEX
  8
Layer0$C$L0
 10
-1.9977798462
 20
-3.8357856274
  0
VERTEX
  8
Layer0$C$L0
 10
-1.9977798462
 20
-4.0157859325
  0
VERTEX
  8
Layer0$C$L0
 10
-1.9297790527
 20
-4.0157859325
  0
VERTEX
  8
Layer0$C$L0
 10
-1.9268385379
 20
-4.0156407870
  0
VERTEX
  8
Layer0$C$L0
 10
-1.9239263423
 20
-4.0152088035
  0
VERTEX
  8
Layer0$C$L0
 10
-1.9210705114
 20
-4.0144934550
  0
VERTEX
  8
Layer0$C$L0
 10
-1.9182985486
 20
-4.0135016306
  0
VERTEX
  8
Layer0$C$L0
 10
-1.9156371493
 20
-4.0122428823
  0
VERTEX
  8
Layer0$C$L0
 10
-1.9131119443
 20
-4.0107293325
  0
VERTEX
  8
Layer0$C$L0
 10
-1.9107472527
 20
-4.0089755574
  0
VERTEX
  8
Layer0$C$L0
 10
-1.9085658478
 20
-4.0069984469
  0
VERTEX
  8
Layer0$C$L0
 10
-1.9065887377
 20
-4.0048170416
  0
VERTEX
  8
Layer0$C$L0
 10
-1.9048349630
 20
-4.0024523497
  0
VERTEX
  8
Layer0$C$L0
 10
-1.9033214136
 20
-3.9999271444
  0
VERTEX
  8
Layer0$C$L0
 10
-1.9020626658
 20
-3.9972657449
  0
VERTEX
  8
Layer0$C$L0
 10
-1.9010708420
 20
-3.9944937819
  0
VERTEX
  8
Layer0$C$L0
 10
-1.9003554941
 20
-3.9916379509
  0
VERTEX
  8
Layer0$C$L0
 10
-1.8999235111
 20
-3.9887257551
  0
SEQEND
  8
Layer0$C$L0
  0
POLYLINE
  8
Layer0$C$L0
 10
0.0000000000
 20
0.0000000000
 30
0.0000000000
 66
     1
 70
     1
  0
VERTEX
  8
Layer0$C$L0
 10
-1.9097785944
 20
-4.0257859677
  0
VERTEX
  8
Layer0$C$L0
 10
-1.9048777371
 20
-4.0255452039
  0
VERTEX
  8
Layer0$C$L0
 10
-1.9000240779
 20
-4.0248252315
  0
VERTEX
  8
Layer0$C$L0
 10
-1.8952643599
 20
-4.0236329840
  0
VERTEX
  8
Layer0$C$L0
 10
-1.8906444221
 20
-4.0219799436
  0
VERTEX
  8
Layer0$C$L0
 10
-1.8862087568
 20
-4.0198820298
  0
VERTEX
  8
Layer0$C$L0
 10
-1.8820000819
 20
-4.0173594468
  0
VERTEX
  8
Layer0$C$L0
 10
-1.8780589294
 20
-4.0144364884
  0
VERTEX
  8
Layer0$C$L0
 10
-1.8744232547
 20
-4.0111413043
  0
VERTEX
  8
Layer0$C$L0
 10
-1.8711280713
 20
-4.0075056290
  0
VERTEX
  8
Layer0$C$L0
 10
-1.8682051137
 20
-4.0035644760
  0
VERTEX
  8
Layer0$C$L0
 10
-1.8656825315
 20
-3.9993558007
  0
VERTEX
  8
Layer0$C$L0
 10
-1.8635846185
 20
-3.9949201350
  0
VERTEX
  8
Layer0$C$L0
 10
-1.8619315789
 20
-3.9903001968
  0
VERTEX
  8
Layer0$C$L0
 10
-1.8607393324
 20
-3.9855404786
  0
VERTEX
  8
Layer0$C$L0
 10
-1.8600193608
 20
-3.9806868192
  0
VERTEX
  8
Layer0$C$L0
 10
-1.8597785980
 20
-3.9757859619
  0
VERTEX
  8
Layer0$C$L0
 10
-1.8597793579
 20
-3.8757855892
  0
VERTEX
  8
Layer0$C$L0
 10
-1.8600193616
 20
-3.8708847324
  0
VERTEX
  8
Layer0$C$L0
 10
-1.8607393339
 20
-3.8660310734
  0
VERTEX
  8
Layer0$C$L0
 10
-1.8619315812
 20
-3.8612713558
  0
VERTEX
  8
Layer0$C$L0
 10
-1.8635846213
 20
-3.8566514182
  0
VERTEX
  8
Layer0$C$L0
 10
-1.8656825347
 20
-3.8522157532
  0
VERTEX
  8
Layer0$C$L0
 10
-1.8682051173
 20
-3.8480070785
  0
VERTEX
  8
Layer0$C$L0
 10
-1.8711280752
 20
-3.8440659262
  0
VERTEX
  8
Layer0$C$L0
 10
-1.8744232588
 20
-3.8404302515
  0
VERTEX
  8
Layer0$C$L0
 10
-1.8780589336
 20
-3.8371350681
  0
VERTEX
  8
Layer0$C$L0
 10
-1.8820000861
 20
-3.8342121103
  0
VERTEX
  8
Layer0$C$L0
 10
-1.8862087609
 20
-3.8316895279
  0
VERTEX
  8
Layer0$C$L0
 10
-1.8906444260
 20
-3.8295916147
  0
VERTEX
  8
Layer0$C$L0
 10
-1.8952643637
 20
-3.8279385748
  0
VERTEX
  8
Layer0$C$L0
 10
-1.9000240813
 20
-3.8267463277
  0
VERTEX
  8
Layer0$C$L0
 10
-1.9048777403
 20
-3.8260263556
  0
VERTEX
  8
Layer0$C$L0
 10
-1.9097785972
 20
-3.8257855922
  0
VERTEX
  8
Layer0$C$L0
 10
-2.0377788544
 20
-3.8257853985
  0
VERTEX
  8
Layer0$C$L0
 10
-2.0377788544
 20
-4.0257852077
  0
SEQEND
  8
Layer0$C$L0
  0
POLYLINE
  8
Layer0$C$L0
 10
0.0000000000
 20
0.0000000000
 30
0.0000000000
 66
     1
 70
     1
  0
VERTEX
  8
Layer0$C$L0
 10
-2.4737796783
 20
-3.8257853985
  0
VERTEX
  8
Layer0$C$L0
 10
-2.4337787628
 20
-3.8257853985
  0
VERTEX
  8
Layer0$C$L0
 10
-2.4337787628
 20
-3.9857852459
  0
VERTEX
  8
Layer0$C$L0
 10
-2.4336355244
 20
-3.9887257625
  0
VERTEX
  8
Layer0$C$L0
 10
-2.4332035408
 20
-3.9916379577
  0
VERTEX
  8
Layer0$C$L0
 10
-2.4324881923
 20
-3.9944937881
  0
VERTEX
  8
Layer0$C$L0
 10
-2.4314963681
 20
-3.9972657505
  0
VERTEX
  8
Layer0$C$L0
 10
-2.4302376200
 20
-3.9999271494
  0
VERTEX
  8
Layer0$C$L0
 10
-2.4287240703
 20
-4.0024523540
  0
VERTEX
  8
Layer0$C$L0
 10
-2.4269702956
 20
-4.0048170453
  0
VERTEX
  8
Layer0$C$L0
 10
-2.4249931854
 20
-4.0069984499
  0
VERTEX
  8
Layer0$C$L0
 10
-2.4228117806
 20
-4.0089755598
  0
VERTEX
  8
Layer0$C$L0
 10
-2.4204470891
 20
-4.0107293344
  0
VERTEX
  8
Layer0$C$L0
 10
-2.4179218844
 20
-4.0122428837
  0
VERTEX
  8
Layer0$C$L0
 10
-2.4152604854
 20
-4.0135016316
  0
VERTEX
  8
Layer0$C$L0
 10
-2.4124885229
 20
-4.0144934556
  0
VERTEX
  8
Layer0$C$L0
 10
-2.4096326924
 20
-4.0152088038
  0
VERTEX
  8
Layer0$C$L0
 10
-2.4067204972
 20
-4.0156407871
  0
VERTEX
  8
Layer0$C$L0
 10
-2.4037799832
 20
-4.0157852452
  0
VERTEX
  8
Layer0$C$L0
 10
-2.3657779694
 20
-4.0157859325
  0
VERTEX
  8
Layer0$C$L0
 10
-2.3628374546
 20
-4.0156407870
  0
VERTEX
  8
Layer0$C$L0
 10
-2.3599252589
 20
-4.0152088035
  0
VERTEX
  8
Layer0$C$L0
 10
-2.3570694280
 20
-4.0144934550
  0
VERTEX
  8
Layer0$C$L0
 10
-2.3542974652
 20
-4.0135016306
  0
VERTEX
  8
Layer0$C$L0
 10
-2.3516360659
 20
-4.0122428823
  0
VERTEX
  8
Layer0$C$L0
 10
-2.3491108609
 20
-4.0107293325
  0
VERTEX
  8
Layer0$C$L0
 10
-2.3467461693
 20
-4.0089755574
  0
VERTEX
  8
Layer0$C$L0
 10
-2.3445647644
 20
-4.0069984469
  0
VERTEX
  8
Layer0$C$L0
 10
-2.3425876543
 20
-4.0048170416
  0
VERTEX
  8
Layer0$C$L0
 10
-2.3408338797
 20
-4.0024523497
  0
VERTEX
  8
Layer0$C$L0
 10
-2.3393203303
 20
-3.9999271444
  0
VERTEX
  8
Layer0$C$L0
 10
-2.3380615825
 20
-3.9972657449
  0
VERTEX
  8
Layer0$C$L0
 10
-2.3370697587
 20
-3.9944937819
  0
VERTEX
  8
Layer0$C$L0
 10
-2.3363544107
 20
-3.9916379509
  0
VERTEX
  8
Layer0$C$L0
 10
-2.3359224277
 20
-3.9887257551
  0
VERTEX
  8
Layer0$C$L0
 10
-2.3357779700
 20
-3.9857852407
  0
VERTEX
  8
Layer0$C$L0
 10
-2.3357791901
 20
-3.8257853985
  0
VERTEX
  8
Layer0$C$L0
 10
-2.2957782745
 20
-3.8257853985
  0
VERTEX
  8
Layer0$C$L0
 10
-2.2957782745
 20
-3.9757859707
  0
VERTEX
  8
Layer0$C$L0
 10
-2.2960201848
 20
-3.9806868192
  0
VERTEX
  8
Layer0$C$L0
 10
-2.2967401563
 20
-3.9855404786
  0
VERTEX
  8
Layer0$C$L0
 10
-2.2979324029
 20
-3.9903001968
  0
VERTEX
  8
Layer0$C$L0
 10
-2.2995854425
 20
-3.9949201350
  0
VERTEX
  8
Layer0$C$L0
 10
-2.3016833554
 20
-3.9993558007
  0
VERTEX
  8
Layer0$C$L0
 10
-2.3042059376
 20
-4.0035644760
  0
VERTEX
  8
Layer0$C$L0
 10
-2.3071288953
 20
-4.0075056290
  0
VERTEX
  8
Layer0$C$L0
 10
-2.3104240787
 20
-4.0111413043
  0
VERTEX
  8
Layer0$C$L0
 10
-2.3140597534
 20
-4.0144364884
  0
VERTEX
  8
Layer0$C$L0
 10
-2.3180009059
 20
-4.0173594468
  0
VERTEX
  8
Layer0$C$L0
 10
-2.3222095807
 20
-4.0198820298
  0
VERTEX
  8
Layer0$C$L0
 10
-2.3266452460
 20
-4.0219799436
  0
VERTEX
  8
Layer0$C$L0
 10
-2.3312651839
 20
-4.0236329840
  0
VERTEX
  8
Layer0$C$L0
 10
-2.3360249018
 20
-4.0248252315
  0
VERTEX
  8
Layer0$C$L0
 10
-2.3408785611
 20
-4.0255452039
  0
VERTEX
  8
Layer0$C$L0
 10
-2.3457794183
 20
-4.0257859677
  0
VERTEX
  8
Layer0$C$L0
 10
-2.4237785339
 20
-4.0257852077
  0
VERTEX
  8
Layer0$C$L0
 10
-2.4286793898
 20
-4.0255452041
  0
VERTEX
  8
Layer0$C$L0
 10
-2.4335330484
 20
-4.0248252320
  0
VERTEX
  8
Layer0$C$L0
 10
-2.4382927657
 20
-4.0236329850
  0
VERTEX
  8
Layer0$C$L0
 10
-2.4429127030
 20
-4.0219799451
  0
VERTEX
  8
Layer0$C$L0
 10
-2.4473483678
 20
-4.0198820321
  0
VERTEX
  8
Layer0$C$L0
 10
-2.4515570423
 20
-4.0173594499
  0
VERTEX
  8
Layer0$C$L0
 10
-2.4554981945
 20
-4.0144364925
  0
VERTEX
  8
Layer0$C$L0
 10
-2.4591338691
 20
-4.0111413094
  0
VERTEX
  8
Layer0$C$L0
 10
-2.4624290526
 20
-4.0075056351
  0
VERTEX
  8
Layer0$C$L0
 10
-2.4653520104
 20
-4.0035644831
  0
VERTEX
  8
Layer0$C$L0
 10
-2.4678745930
 20
-3.9993558089
  0
VERTEX
  8
Layer0$C$L0
 10
-2.4699725065
 20
-3.9949201443
  0
VERTEX
  8
Layer0$C$L0
 10
-2.4716255468
 20
-3.9903002072
  0
VERTEX
  8
Layer0$C$L0
 10
-2.4728177943
 20
-3.9855404900
  0
VERTEX
  8
Layer0$C$L0
 10
-2.4735377669
 20
-3.9806868315
  0
VERTEX
  8
Layer0$C$L0
 10
-2.4737785310
 20
-3.9757859751
  0
SEQEND
  8
Layer0$C$L0
  0
POLYLINE
  8
Layer0$C$L0
 10
0.0000000000
 20
0.0000000000
 30
0.0000000000
 66
     1
 70
     1
  0
VERTEX
  8
Layer0$C$L0
 10
-2.5137798339
 20
-3.8757855892
  0
VERTEX
  8
Layer0$C$L0
 10
-2.5140205976
 20
-3.8708847324
  0
VERTEX
  8
Layer0$C$L0
 10
-2.5147405699
 20
-3.8660310734
  0
VERTEX
  8
Layer0$C$L0
 10
-2.5159328171
 20
-3.8612713558
  0
VERTEX
  8
Layer0$C$L0
 10
-2.5175858573
 20
-3.8566514182
  0
VERTEX
  8
Layer0$C$L0
 10
-2.5196837707
 20
-3.8522157532
  0
VERTEX
  8
Layer0$C$L0
 10
-2.5222063533
 20
-3.8480070785
  0
VERTEX
  8
Layer0$C$L0
 10
-2.5251293112
 20
-3.8440659262
  0
VERTEX
  8
Layer0$C$L0
 10
-2.5284244948
 20
-3.8404302515
  0
VERTEX
  8
Layer0$C$L0
 10
-2.5320601696
 20
-3.8371350681
  0
VERTEX
  8
Layer0$C$L0
 10
-2.5360013221
 20
-3.8342121103
  0
VERTEX
  8
Layer0$C$L0
 10
-2.5402099968
 20
-3.8316895279
  0
VERTEX
  8
Layer0$C$L0
 10
-2.5446456620
 20
-3.8295916147
  0
VERTEX
  8
Layer0$C$L0
 10
-2.5492655996
 20
-3.8279385748
  0
VERTEX
  8
Layer0$C$L0
 10
-2.5540253173
 20
-3.8267463277
  0
VERTEX
  8
Layer0$C$L0
 10
-2.5588789762
 20
-3.8260263556
  0
VERTEX
  8
Layer0$C$L0
 10
-2.5637798331
 20
-3.8257855922
  0
VERTEX
  8
Layer0$C$L0
 10
-2.6417789459
 20
-3.8257853985
  0
VERTEX
  8
Layer0$C$L0
 10
-2.6466798050
 20
-3.8260263561
  0
VERTEX
  8
Layer0$C$L0
 10
-2.6515334639
 20
-3.8267463286
  0
VERTEX
  8
Layer0$C$L0
 10
-2.6562931814
 20
-3.8279385760
  0
VERTEX
  8
Layer0$C$L0
 10
-2.6609131189
 20
-3.8295916164
  0
VERTEX
  8
Layer0$C$L0
 10
-2.6653487839
 20
-3.8316895300
  0
VERTEX
  8
Layer0$C$L0
 10
-2.6695574584
 20
-3.8342121128
  0
VERTEX
  8
Layer0$C$L0
 10
-2.6734986107
 20
-3.8371350708
  0
VERTEX
  8
Layer0$C$L0
 10
-2.6771342852
 20
-3.8404302546
  0
VERTEX
  8
Layer0$C$L0
 10
-2.6804294685
 20
-3.8440659295
  0
VERTEX
  8
Layer0$C$L0
 10
-2.6833524260
 20
-3.8480070822
  0
VERTEX
  8
Layer0$C$L0
 10
-2.6858750083
 20
-3.8522157570
  0
VERTEX
  8
Layer0$C$L0
 10
-2.6879729213
 20
-3.8566514223
  0
VERTEX
  8
Layer0$C$L0
 10
-2.6896259610
 20
-3.8612713600
  0
VERTEX
  8
Layer0$C$L0
 10
-2.6908182078
 20
-3.8660310777
  0
VERTEX
  8
Layer0$C$L0
 10
-2.6915381797
 20
-3.8708847367
  0
VERTEX
  8
Layer0$C$L0
 10
-2.6917789429
 20
-3.8757855936
  0
VERTEX
  8
Layer0$C$L0
 10
-2.6917810440
 20
-3.9757859707
  0
VERTEX
  8
Layer0$C$L0
 10
-2.6915381789
 20
-3.9806868315
  0
VERTEX
  8
Layer0$C$L0
 10
-2.6908182063
 20
-3.9855404900
  0
VERTEX
  8
Layer0$C$L0
 10
-2.6896259588
 20
-3.9903002072
  0
VERTEX
  8
Layer0$C$L0
 10
-2.6879729185
 20
-3.9949201443
  0
VERTEX
  8
Layer0$C$L0
 10
-2.6858750050
 20
-3.9993558089
  0
VERTEX
  8
Layer0$C$L0
 10
-2.6833524224
 20
-4.0035644831
  0
VERTEX
  8
Layer0$C$L0
 10
-2.6804294646
 20
-4.0075056351
  0
VERTEX
  8
Layer0$C$L0
 10
-2.6771342811
 20
-4.0111413094
  0
VERTEX
  8
Layer0$C$L0
 10
-2.6734986065
 20
-4.0144364925
  0
VERTEX
  8
Layer0$C$L0
 10
-2.6695574542
 20
-4.0173594499
  0
VERTEX
  8
Layer0$C$L0
 10
-2.6653487798
 20
-4.0198820321
  0
VERTEX
  8
Layer0$C$L0
 10
-2.6609131150
 20
-4.0219799451
  0
VERTEX
  8
Layer0$C$L0
 10
-2.6562931777
 20
-4.0236329850
  0
VERTEX
  8
Layer0$C$L0
 10
-2.6515334604
 20
-4.0248252320
  0
VERTEX
  8
Layer0$C$L0
 10
-2.6466798018
 20
-4.0255452041
  0
VERTEX
  8
Layer0$C$L0
 10
-2.6417789453
 20
-4.0257859677
  0
VERTEX
  8
Layer0$C$L0
 10
-2.5637798309
 20
-4.0257852077
  0
VERTEX
  8
Layer0$C$L0
 10
-2.5588789731
 20
-4.0255452039
  0
VERTEX
  8
Layer0$C$L0
 10
-2.5540253138
 20
-4.0248252315
  0
VERTEX
  8
Layer0$C$L0
 10
-2.5492655959
 20
-4.0236329840
  0
VERTEX
  8
Layer0$C$L0
 10
-2.5446456580
 20
-4.0219799436
  0
VERTEX
  8
Layer0$C$L0
 10
-2.5402099927
 20
-4.0198820298
  0
VERTEX
  8
Layer0$C$L0
 10
-2.5360013179
 20
-4.0173594468
  0
VERTEX
  8
Layer0$C$L0
 10
-2.5320601654
 20
-4.0144364884
  0
VERTEX
  8
Layer0$C$L0
 10
-2.5284244907
 20
-4.0111413043
  0
VERTEX
  8
Layer0$C$L0
 10
-2.5251293073
 20
-4.0075056290
  0
VERTEX
  8
Layer0$C$L0
 10
-2.5222063496
 20
-4.0035644760
  0
VERTEX
  8
Layer0$C$L0
 10
-2.5196837674
 20
-3.9993558007
  0
VERTEX
  8
Layer0$C$L0
 10
-2.5175858545
 20
-3.9949201350
  0
VERTEX
  8
Layer0$C$L0
 10
-2.5159328149
 20
-3.9903001968
  0
VERTEX
  8
Layer0$C$L0
 10
-2.5147405683
 20
-3.9855404786
  0
VERTEX
  8
Layer0$C$L0
 10
-2.5140205968
 20
-3.9806868192
  0
VERTEX
  8
Layer0$C$L0
 10
-2.5137798339
 20
-3.9757859619
  0
SEQEND
  8
Layer0$C$L0
  0
POLYLINE
  8
Layer0$C$L0
 10
0.0000000000
 20
0.0000000000
 30
0.0000000000
 66
     1
 70
     1
  0
VERTEX
  8
Layer0$C$L0
 10
-2.7717809677
 20
-3.9857852459
  0
VERTEX
  8
Layer0$C$L0
 10
-2.7717809677
 20
-3.9587857723
  0
VERTEX
  8
Layer0$C$L0
 10
-2.7718777314
 20
-3.9568254295
  0
VERTEX
  8
Layer0$C$L0
 10
-2.7721657203
 20
-3.9548839659
  0
VERTEX
  8
Layer0$C$L0
 10
-2.7726426192
 20
-3.9529800788
  0
VERTEX
  8
Layer0$C$L0
 10
-2.7733038353
 20
-3.9511321036
  0
VERTEX
  8
Layer0$C$L0
 10
-2.7741430007
 20
-3.9493578376
  0
VERTEX
  8
Layer0$C$L0
 10
-2.7751520338
 20
-3.9476743676
  0
VERTEX
  8
Layer0$C$L0
 10
-2.7763212170
 20
-3.9460979066
  0
VERTEX
  8
Layer0$C$L0
 10
-2.7776392905
 20
-3.9446436367
  0
VERTEX
  8
Layer0$C$L0
 10
-2.7790935605
 20
-3.9433255633
  0
VERTEX
  8
Layer0$C$L0
 10
-2.7806700215
 20
-3.9421563801
  0
VERTEX
  8
Layer0$C$L0
 10
-2.7823534915
 20
-3.9411473471
  0
VERTEX
  8
Layer0$C$L0
 10
-2.7841277576
 20
-3.9403081818
  0
VERTEX
  8
Layer0$C$L0
 10
-2.7859757327
 20
-3.9396469658
  0
VERTEX
  8
Layer0$C$L0
 10
-2.7878796199
 20
-3.9391700670
  0
VERTEX
  8
Layer0$C$L0
 10
-2.7898210835
 20
-3.9388820782
  0
VERTEX
  8
Layer0$C$L0
 10
-2.7917814264
 20
-3.9387857728
  0
VERTEX
  8
Layer0$C$L0
 10
-2.8167810440
 20
-3.9387853146
  0
VERTEX
  8
Layer0$C$L0
 10
-2.8167810440
 20
-3.9257857800
  0
VERTEX
  8
Layer0$C$L0
 10
-2.7317800522
 20
-3.9257857800
  0
VERTEX
  8
Layer0$C$L0
 10
-2.7317800522
 20
-3.9757859707
  0
VERTEX
  8
Layer0$C$L0
 10
-2.7320219624
 20
-3.9806868192
  0
VERTEX
  8
Layer0$C$L0
 10
-2.7327419340
 20
-3.9855404786
  0
VERTEX
  8
Layer0$C$L0
 10
-2.7339341806
 20
-3.9903001968
  0
VERTEX
  8
Layer0$C$L0
 10
-2.7355872202
 20
-3.9949201350
  0
VERTEX
  8
Layer0$C$L0
 10
-2.7376851331
 20
-3.9993558007
  0
VERTEX
  8
Layer0$C$L0
 10
-2.7402077153
 20
-4.0035644760
  0
VERTEX
  8
Layer0$C$L0
 10
-2.7431306729
 20
-4.0075056290
  0
VERTEX
  8
Layer0$C$L0
 10
-2.7464258563
 20
-4.0111413043
  0
VERTEX
  8
Layer0$C$L0
 10
-2.7500615311
 20
-4.0144364884
  0
VERTEX
  8
Layer0$C$L0
 10
-2.7540026836
 20
-4.0173594468
  0
VERTEX
  8
Layer0$C$L0
 10
-2.7582113584
 20
-4.0198820298
  0
VERTEX
  8
Layer0$C$L0
 10
-2.7626470237
 20
-4.0219799436
  0
VERTEX
  8
Layer0$C$L0
 10
-2.7672669616
 20
-4.0236329840
  0
VERTEX
  8
Layer0$C$L0
 10
-2.7720266795
 20
-4.0248252315
  0
VERTEX
  8
Layer0$C$L0
 10
-2.7768803388
 20
-4.0255452039
  0
VERTEX
  8
Layer0$C$L0
 10
-2.7817811960
 20
-4.0257859677
  0
VERTEX
  8
Layer0$C$L0
 10
-2.8597803116
 20
-4.0257852077
  0
VERTEX
  8
Layer0$C$L0
 10
-2.8646811675
 20
-4.0255452041
  0
VERTEX
  8
Layer0$C$L0
 10
-2.8695348261
 20
-4.0248252320
  0
VERTEX
  8
Layer0$C$L0
 10
-2.8742945433
 20
-4.0236329850
  0
VERTEX
  8
Layer0$C$L0
 10
-2.8789144806
 20
-4.0219799451
  0
VERTEX
  8
Layer0$C$L0
 10
-2.8833501455
 20
-4.0198820321
  0
VERTEX
  8
Layer0$C$L0
 10
-2.8875588199
 20
-4.0173594499
  0
VERTEX
  8
Layer0$C$L0
 10
-2.8914999722
 20
-4.0144364925
  0
VERTEX
  8
Layer0$C$L0
 10
-2.8951356468
 20
-4.0111413094
  0
VERTEX
  8
Layer0$C$L0
 10
-2.8984308302
 20
-4.0075056351
  0
VERTEX
  8
Layer0$C$L0
 10
-2.9013537881
 20
-4.0035644831
  0
VERTEX
  8
Layer0$C$L0
 10
-2.9038763707
 20
-3.9993558089
  0
VERTEX
  8
Layer0$C$L0
 10
-2.9059742841
 20
-3.9949201443
  0
VERTEX
  8
Layer0$C$L0
 10
-2.9076273245
 20
-3.9903002072
  0
VERTEX
  8
Layer0$C$L0
 10
-2.9088195719
 20
-3.9855404900
  0
VERTEX
  8
Layer0$C$L0
 10
-2.9095395445
 20
-3.9806868315
  0
VERTEX
  8
Layer0$C$L0
 10
-2.9097803086
 20
-3.9757859751
  0
VERTEX
  8
Layer0$C$L0
 10
-2.9097814560
 20
-3.8757855892
  0
VERTEX
  8
Layer0$C$L0
 10
-2.9095395454
 20
-3.8708847367
  0
VERTEX
  8
Layer0$C$L0
 10
-2.9088195735
 20
-3.8660310777
  0
VERTEX
  8
Layer0$C$L0
 10
-2.9076273267
 20
-3.8612713600
  0
VERTEX
  8
Layer0$C$L0
 10
-2.9059742869
 20
-3.8566514223
  0
VERTEX
  8
Layer0$C$L0
 10
-2.9038763739
 20
-3.8522157570
  0
VERTEX
  8
Layer0$C$L0
 10
-2.9013537917
 20
-3.8480070822
  0
VERTEX
  8
Layer0$C$L0
 10
-2.8984308341
 20
-3.8440659295
  0
VERTEX
  8
Layer0$C$L0
 10
-2.8951356509
 20
-3.8404302546
  0
VERTEX
  8
Layer0$C$L0
 10
-2.8914999763
 20
-3.8371350708
  0
VERTEX
  8
Layer0$C$L0
 10
-2.8875588241
 20
-3.8342121128
  0
VERTEX
  8
Layer0$C$L0
 10
-2.8833501496
 20
-3.8316895300
  0
VERTEX
  8
Layer0$C$L0
 10
-2.8789144846
 20
-3.8295916164
  0
VERTEX
  8
Layer0$C$L0
 10
-2.8742945471
 20
-3.8279385760
  0
VERTEX
  8
Layer0$C$L0
 10
-2.8695348295
 20
-3.8267463286
  0
VERTEX
  8
Layer0$C$L0
 10
-2.8646811706
 20
-3.8260263561
  0
VERTEX
  8
Layer0$C$L0
 10
-2.8597803138
 20
-3.8257855922
  0
VERTEX
  8
Layer0$C$L0
 10
-2.7817811966
 20
-3.8257853985
  0
VERTEX
  8
Layer0$C$L0
 10
-2.7768803419
 20
-3.8260263556
  0
VERTEX
  8
Layer0$C$L0
 10
-2.7720266830
 20
-3.8267463277
  0
VERTEX
  8
Layer0$C$L0
 10
-2.7672669653
 20
-3.8279385748
  0
VERTEX
  8
Layer0$C$L0
 10
-2.7626470276
 20
-3.8295916147
  0
VERTEX
  8
Layer0$C$L0
 10
-2.7582113625
 20
-3.8316895279
  0
VERTEX
  8
Layer0$C$L0
 10
-2.7540026877
 20
-3.8342121103
  0
VERTEX
  8
Layer0$C$L0
 10
-2.7500615352
 20
-3.8371350681
  0
VERTEX
  8
Layer0$C$L0
 10
-2.7464258604
 20
-3.8404302515
  0
VERTEX
  8
Layer0$C$L0
 10
-2.7431306768
 20
-3.8440659262
  0
VERTEX
  8
Layer0$C$L0
 10
-2.7402077189
 20
-3.8480070785
  0
VERTEX
  8
Layer0$C$L0
 10
-2.7376851363
 20
-3.8522157532
  0
VERTEX
  8
Layer0$C$L0
 10
-2.7355872229
 20
-3.8566514182
  0
VERTEX
  8
Layer0$C$L0
 10
-2.7339341828
 20
-3.8612713558
  0
VERTEX
  8
Layer0$C$L0
 10
-2.7327419356
 20
-3.8660310734
  0
VERTEX
  8
Layer0$C$L0
 10
-2.7320219632
 20
-3.8708847324
  0
VERTEX
  8
Layer0$C$L0
 10
-2.7317811996
 20
-3.8757855892
  0
VERTEX
  8
Layer0$C$L0
 10
-2.7317800522
 20
-3.9007852077
  0
VERTEX
  8
Layer0$C$L0
 10
-2.7717809677
 20
-3.9007852077
  0
VERTEX
  8
Layer0$C$L0
 10
-2.7717809677
 20
-3.8657853603
  0
VERTEX
  8
Layer0$C$L0
 10
-2.7719242063
 20
-3.8628448417
  0
VERTEX
  8
Layer0$C$L0
 10
-2.7723561900
 20
-3.8599326470
  0
VERTEX
  8
Layer0$C$L0
 10
-2.7730715385
 20
-3.8570768172
  0
VERTEX
  8
Layer0$C$L0
 10
-2.7740633626
 20
-3.8543048553
  0
VERTEX
  8
Layer0$C$L0
 10
-2.7753221105
 20
-3.8516434570
  0
VERTEX
  8
Layer0$C$L0
 10
-2.7768356598
 20
-3.8491182528
  0
VERTEX
  8
Layer0$C$L0
 10
-2.7785894342
 20
-3.8467535619
  0
VERTEX
  8
Layer0$C$L0
 10
-2.7805665438
 20
-3.8445721576
  0
VERTEX
  8
Layer0$C$L0
 10
-2.7827479481
 20
-3.8425950479
  0
VERTEX
  8
Layer0$C$L0
 10
-2.7851126390
 20
-3.8408412735
  0
VERTEX
  8
Layer0$C$L0
 10
-2.7876378431
 20
-3.8393277241
  0
VERTEX
  8
Layer0$C$L0
 10
-2.7902992415
 20
-3.8380689762
  0
VERTEX
  8
Layer0$C$L0
 10
-2.7930712033
 20
-3.8370771520
  0
VERTEX
  8
Layer0$C$L0
 10
-2.7959270331
 20
-3.8363618035
  0
VERTEX
  8
Layer0$C$L0
 10
-2.7988392277
 20
-3.8359298197
  0
VERTEX
  8
Layer0$C$L0
 10
-2.8017797412
 20
-3.8357853610
  0
VERTEX
  8
Layer0$C$L0
 10
-2.8397817612
 20
-3.8357856274
  0
VERTEX
  8
Layer0$C$L0
 10
-2.8427222767
 20
-3.8359298193
  0
VERTEX
  8
Layer0$C$L0
 10
-2.8456344721
 20
-3.8363618029
  0
VERTEX
  8
Layer0$C$L0
 10
-2.8484903028
 20
-3.8370771514
  0
VERTEX
  8
Layer0$C$L0
 10
-2.8512622654
 20
-3.8380689756
  0
VERTEX
  8
Layer0$C$L0
 10
-2.8539236645
 20
-3.8393277238
  0
VERTEX
  8
Layer0$C$L0
 10
-2.8564488693
 20
-3.8408412735
  0
VERTEX
  8
Layer0$C$L0
 10
-2.8588135607
 20
-3.8425950484
  0
VERTEX
  8
Layer0$C$L0
 10
-2.8609949655
 20
-3.8445721588
  0
VERTEX
  8
Layer0$C$L0
 10
-2.8629720756
 20
-3.8467535638
  0
VERTEX
  8
Layer0$C$L0
 10
-2.8647258502
 20
-3.8491182555
  0
VERTEX
  8
Layer0$C$L0
 10
-2.8662393996
 20
-3.8516434605
  0
VERTEX
  8
Layer0$C$L0
 10
-2.8674981474
 20
-3.8543048597
  0
VERTEX
  8
Layer0$C$L0
 10
-2.8684899713
 20
-3.8570768225
  0
VERTEX
  8
Layer0$C$L0
 10
-2.8692053194
 20
-3.8599326532
  0
VERTEX
  8
Layer0$C$L0
 10
-2.8696373026
 20
-3.8628448487
  0
VERTEX
  8
Layer0$C$L0
 10
-2.8697817605
 20
-3.8657853630
  0
VERTEX
  8
Layer0$C$L0
 10
-2.8697805405
 20
-3.9857852459
  0
VERTEX
  8
Layer0$C$L0
 10
-2.8696373021
 20
-3.9887257625
  0
VERTEX
  8
Layer0$C$L0
 10
-2.8692053185
 20
-3.9916379577
  0
VERTEX
  8
Layer0$C$L0
 10
-2.8684899700
 20
-3.9944937881
  0
VERTEX
  8
Layer0$C$L0
 10
-2.8674981457
 20
-3.9972657505
  0
VERTEX
  8
Layer0$C$L0
 10
-2.8662393976
 20
-3.9999271494
  0
VERTEX
  8
Layer0$C$L0
 10
-2.8647258480
 20
-4.0024523540
  0
VERTEX
  8
Layer0$C$L0
 10
-2.8629720732
 20
-4.0048170453
  0
VERTEX
  8
Layer0$C$L0
 10
-2.8609949631
 20
-4.0069984499
  0
VERTEX
  8
Layer0$C$L0
 10
-2.8588135582
 20
-4.0089755598
  0
VERTEX
  8
Layer0$C$L0
 10
-2.8564488668
 20
-4.0107293344
  0
VERTEX
  8
Layer0$C$L0
 10
-2.8539236620
 20
-4.0122428837
  0
VERTEX
  8
Layer0$C$L0
 10
-2.8512622630
 20
-4.0135016316
  0
VERTEX
  8
Layer0$C$L0
 10
-2.8484903005
 20
-4.0144934556
  0
VERTEX
  8
Layer0$C$L0
 10
-2.8456344701
 20
-4.0152088038
  0
VERTEX
  8
Layer0$C$L0
 10
-2.8427222748
 20
-4.0156407871
  0
VERTEX
  8
Layer0$C$L0
 10
-2.8397817608
 20
-4.0157852452
  0
VERTEX
  8
Layer0$C$L0
 10
-2.8017797470
 20
-4.0157859325
  0
VERTEX
  8
Layer0$C$L0
 10
-2.7988392322
 20
-4.0156407870
  0
VERTEX
  8
Layer0$C$L0
 10
-2.7959270365
 20
-4.0152088035
  0
VERTEX
  8
Layer0$C$L0
 10
-2.7930712057
 20
-4.0144934550
  0
VERTEX
  8
Layer0$C$L0
 10
-2.7902992428
 20
-4.0135016306
  0
VERTEX
  8
Layer0$C$L0
 10
-2.7876378436
 20
-4.0122428823
  0
VERTEX
  8
Layer0$C$L0
 10
-2.7851126386
 20
-4.0107293325
  0
VERTEX
  8
Layer0$C$L0
 10
-2.7827479470
 20
-4.0089755574
  0
VERTEX
  8
Layer0$C$L0
 10
-2.7805665421
 20
-4.0069984469
  0
VERTEX
  8
Layer0$C$L0
 10
-2.7785894320
 20
-4.0048170416
  0
VERTEX
  8
Layer0$C$L0
 10
-2.7768356573
 20
-4.0024523497
  0
VERTEX
  8
Layer0$C$L0
 10
-2.7753221079
 20
-3.9999271444
  0
VERTEX
  8
Layer0$C$L0
 10
-2.7740633601
 20
-3.9972657449
  0
VERTEX
  8
Layer0$C$L0
 10
-2.7730715363
 20
-3.9944937819
  0
VERTEX
  8
Layer0$C$L0
 10
-2.7723561884
 20
-3.9916379509
  0
VERTEX
  8
Layer0$C$L0
 10
-2.7719242054
 20
-3.9887257551
  0
SEQEND
  8
Layer0$C$L0
  0
POLYLINE
  8
Layer0$C$L0
 10
0.0000000000
 20
0.0000000000
 30
0.0000000000
 66
     1
 70
     1
  0
VERTEX
  8
Layer0$C$L0
 10
-2.6217803955
 20
-3.8357856274
  0
VERTEX
  8
Layer0$C$L0
 10
-2.5837783813
 20
-3.8357856274
  0
VERTEX
  8
Layer0$C$L0
 10
-2.5808378621
 20
-3.8359298197
  0
VERTEX
  8
Layer0$C$L0
 10
-2.5779256674
 20
-3.8363618035
  0
VERTEX
  8
Layer0$C$L0
 10
-2.5750698376
 20
-3.8370771520
  0
VERTEX
  8
Layer0$C$L0
 10
-2.5722978758
 20
-3.8380689762
  0
VERTEX
  8
Layer0$C$L0
 10
-2.5696364775
 20
-3.8393277241
  0
VERTEX
  8
Layer0$C$L0
 10
-2.5671112733
 20
-3.8408412735
  0
VERTEX
  8
Layer0$C$L0
 10
-2.5647465825
 20
-3.8425950479
  0
VERTEX
  8
Layer0$C$L0
 10
-2.5625651782
 20
-3.8445721576
  0
VERTEX
  8
Layer0$C$L0
 10
-2.5605880685
 20
-3.8467535619
  0
VERTEX
  8
Layer0$C$L0
 10
-2.5588342941
 20
-3.8491182528
  0
VERTEX
  8
Layer0$C$L0
 10
-2.5573207448
 20
-3.8516434570
  0
VERTEX
  8
Layer0$C$L0
 10
-2.5560619969
 20
-3.8543048553
  0
VERTEX
  8
Layer0$C$L0
 10
-2.5550701728
 20
-3.8570768172
  0
VERTEX
  8
Layer0$C$L0
 10
-2.5543548243
 20
-3.8599326470
  0
VERTEX
  8
Layer0$C$L0
 10
-2.5539228407
 20
-3.8628448417
  0
VERTEX
  8
Layer0$C$L0
 10
-2.5537783820
 20
-3.8657853551
  0
VERTEX
  8
Layer0$C$L0
 10
-2.5537796021
 20
-3.9857852459
  0
VERTEX
  8
Layer0$C$L0
 10
-2.5539228397
 20
-3.9887257551
  0
VERTEX
  8
Layer0$C$L0
 10
-2.5543548227
 20
-3.9916379509
  0
VERTEX
  8
Layer0$C$L0
 10
-2.5550701707
 20
-3.9944937819
  0
VERTEX
  8
Layer0$C$L0
 10
-2.5560619945
 20
-3.9972657449
  0
VERTEX
  8
Layer0$C$L0
 10
-2.5573207423
 20
-3.9999271444
  0
VERTEX
  8
Layer0$C$L0
 10
-2.5588342916
 20
-4.0024523497
  0
VERTEX
  8
Layer0$C$L0
 10
-2.5605880663
 20
-4.0048170416
  0
VERTEX
  8
Layer0$C$L0
 10
-2.5625651764
 20
-4.0069984469
  0
VERTEX
  8
Layer0$C$L0
 10
-2.5647465813
 20
-4.0089755574
  0
VERTEX
  8
Layer0$C$L0
 10
-2.5671112729
 20
-4.0107293325
  0
VERTEX
  8
Layer0$C$L0
 10
-2.5696364779
 20
-4.0122428823
  0
VERTEX
  8
Layer0$C$L0
 10
-2.5722978772
 20
-4.0135016306
  0
VERTEX
  8
Layer0$C$L0
 10
-2.5750698400
 20
-4.0144934550
  0
VERTEX
  8
Layer0$C$L0
 10
-2.5779256709
 20
-4.0152088035
  0
VERTEX
  8
Layer0$C$L0
 10
-2.5808378665
 20
-4.0156407870
  0
VERTEX
  8
Layer0$C$L0
 10
-2.5837783810
 20
-4.0157852452
  0
VERTEX
  8
Layer0$C$L0
 10
-2.6217803955
 20
-4.0157859325
  0
VERTEX
  8
Layer0$C$L0
 10
-2.6247209092
 20
-4.0156407871
  0
VERTEX
  8
Layer0$C$L0
 10
-2.6276331044
 20
-4.0152088038
  0
VERTEX
  8
Layer0$C$L0
 10
-2.6304889349
 20
-4.0144934556
  0
VERTEX
  8
Layer0$C$L0
 10
-2.6332608974
 20
-4.0135016316
  0
VERTEX
  8
Layer0$C$L0
 10
-2.6359222964
 20
-4.0122428837
  0
VERTEX
  8
Layer0$C$L0
 10
-2.6384475011
 20
-4.0107293344
  0
VERTEX
  8
Layer0$C$L0
 10
-2.6408121926
 20
-4.0089755598
  0
VERTEX
  8
Layer0$C$L0
 10
-2.6429935974
 20
-4.0069984499
  0
VERTEX
  8
Layer0$C$L0
 10
-2.6449707076
 20
-4.0048170453
  0
VERTEX
  8
Layer0$C$L0
 10
-2.6467244823
 20
-4.0024523540
  0
VERTEX
  8
Layer0$C$L0
 10
-2.6482380319
 20
-3.9999271494
  0
VERTEX
  8
Layer0$C$L0
 10
-2.6494967801
 20
-3.9972657505
  0
VERTEX
  8
Layer0$C$L0
 10
-2.6504886043
 20
-3.9944937881
  0
VERTEX
  8
Layer0$C$L0
 10
-2.6512039528
 20
-3.9916379577
  0
VERTEX
  8
Layer0$C$L0
 10
-2.6516359364
 20
-3.9887257625
  0
VERTEX
  8
Layer0$C$L0
 10
-2.6517803948
 20
-3.9857852485
  0
VERTEX
  8
Layer0$C$L0
 10
-2.6517791748
 20
-3.8657853603
  0
VERTEX
  8
Layer0$C$L0
 10
-2.6516359369
 20
-3.8628448487
  0
VERTEX
  8
Layer0$C$L0
 10
-2.6512039537
 20
-3.8599326532
  0
VERTEX
  8
Layer0$C$L0
 10
-2.6504886056
 20
-3.8570768225
  0
VERTEX
  8
Layer0$C$L0
 10
-2.6494967817
 20
-3.8543048597
  0
VERTEX
  8
Layer0$C$L0
 10
-2.6482380339
 20
-3.8516434605
  0
VERTEX
  8
Layer0$C$L0
 10
-2.6467244845
 20
-3.8491182555
  0
VERTEX
  8
Layer0$C$L0
 10
-2.6449707099
 20
-3.8467535638
  0
VERTEX
  8
Layer0$C$L0
 10
-2.6429935999
 20
-3.8445721588
  0
VERTEX
  8
Layer0$C$L0
 10
-2.6408121951
 20
-3.8425950484
  0
VERTEX
  8
Layer0$C$L0
 10
-2.6384475036
 20
-3.8408412735
  0
VERTEX
  8
Layer0$C$L0
 10
-2.6359222988
 20
-3.8393277238
  0
VERTEX
  8
Layer0$C$L0
 10
-2.6332608997
 20
-3.8380689756
  0
VERTEX
  8
Layer0$C$L0
 10
-2.6304889371
 20
-3.8370771514
  0
VERTEX
  8
Layer0$C$L0
 10
-2.6276331065
 20
-3.8363618029
  0
VERTEX
  8
Layer0$C$L0
 10
-2.6247209110
 20
-3.8359298193
  0
SEQEND
  8
Layer0$C$L0
  0
TEXT
  8
Layer10$C$L10
 10
0.476264
 20
-4.640785
 40
0.120000
  1
         A50QS600-4
 72
     5
 11
2.724176
 21
-4.640785
  0
TEXT
  8
Layer10$C$L10
 10
0.476264
 20
-4.460784
 40
0.120000
  1
         A50QS500-4
 72
     5
 11
2.724176
 21
-4.460784
  0
TEXT
  8
Layer10$C$L10
 10
0.476264
 20
-4.280784
 40
0.120000
  1
CAT. NO. A50QS450-4
 72
     5
 11
2.724176
 21
-4.280784
  0
TEXT
  8
Layer10$C$L10
 10
3.883645
 20
-4.545235
 40
0.250000
  1
24350
 72
     5
 11
5.066795
 21
-4.545235
  0
TEXT
  8
Layer10$C$L10
 10
0.476264
 20
-3.920784
 40
0.120000
  1
FORM 101   500 VOLT
 72
     5
 11
2.724176
 21
-3.920784
  0
DIMENSION
  8
Layer10$C$L10
  2
*D0
 70
     1
 10
1.234499
 20
-3.034128
 11
-1.000000
 21
-3.034128
  3
DIM1
100
AcDbAlignedDimension
 13
-3.234499
 23
-0.250000
 14
1.234499
 24
-0.250000
  0
DIMENSION
  8
Layer10$C$L10
  2
*D1
 70
     1
 10
0.765499
 20
-2.278920
 11
-1.000000
 21
-2.278920
  3
DIM1
100
AcDbAlignedDimension
 13
-2.765499
 23
0.500000
 14
0.765499
 24
0.500000
  0
DIMENSION
  8
Layer10$C$L10
  2
*D2
 70
     1
 10
0.453499
 20
-1.613144
 11
-1.000000
 21
-1.613144
  3
DIM1
100
AcDbAlignedDimension
 13
-2.453499
 23
0.500000
 14
0.453499
 24
0.500000
  0
DIMENSION
  8
Layer10$C$L10
  2
*D3
 70
     1
 10
0.109375
 20
-0.887746
 11
-1.000000
 21
-0.887746
  3
DIM1
100
AcDbAlignedDimension
 13
-2.109375
 23
-0.500000
 14
0.109375
 24
-0.500000
  0
LINE
  8
Layer10$C$L10
 10
1.270520
 20
1.250000
 11
1.589961
 21
1.250000
  0
DIMENSION
  8
Layer10$C$L10
  2
*D4
 70
     1
 10
1.634868
 20
0.702999
 11
1.634868
 21
1.802997
  3
DIM1
100
AcDbAlignedDimension
 13
0.765499
 23
0.296999
 14
0.765499
 24
0.702999
  0
DIMENSION
  8
Layer10$C$L10
  2
*D5
 70
     1
 10
4.009500
 20
-1.010721
 11
3.202241
 21
-1.010721
  3
DIM1
100
AcDbAlignedDimension
 13
3.759500
 23
-0.250000
 14
4.009500
 24
-0.250000
  0
INSERT
  8
Layer10$C$L10
  2
*D6
 10
0.000000
 20
0.000000
  0
DIMENSION
  8
Layer10$C$L10
  2
*D7
 10
2.333577
 20
1.250000
 11
2.333577
 21
0.500000
  3
DIM1
100
AcDbAlignedDimension
 13
1.234499
 23
-0.250000
 14
1.699920
 24
1.250000
 50
-90.000000
100
AcDbRotatedDimension
  0
LINE
  8
Layer0$C$L0
 10
4.009500
 20
-0.250000
 11
3.759500
 21
-0.250000
  0
LINE
  8
Layer0$C$L0
 10
3.759500
 20
1.250000
 11
4.009500
 21
1.250000
  0
LINE
  8
Layer0$C$L0
 10
4.009500
 20
-0.250000
 11
4.009500
 21
1.250000
  0
LINE
  8
Layer0$C$L0
 10
3.759500
 20
-0.250000
 11
3.759500
 21
1.250000
  0
CIRCLE
  5
3
100
AcDbEntity
  8
Layer0$C$L0
100
AcDbCircle
 10
3.884499
 20
0.500000
 40
1.000000
  0
ARC
  8
Layer0$C$L0
 10
-2.765499
 20
0.500000
 40
0.203000
100
AcDbArc
 50
90.000003
 51
270.000001
  0
ARC
  8
Layer0$C$L0
 10
-2.453499
 20
0.500000
 40
0.203000
100
AcDbArc
 50
270.000001
 51
449.999992
  0
LINE
  8
Layer0$C$L0
 10
-2.453499
 20
0.296999
 11
-2.765499
 21
0.296999
  0
LINE
  8
Layer0$C$L0
 10
-2.453499
 20
0.702999
 11
-2.765499
 21
0.702999
  0
LINE
  8
Layer0$C$L0
 10
-3.234499
 20
1.250000
 11
-3.234499
 21
-0.250000
  0
LINE
  8
Layer0$C$L0
 10
-3.234499
 20
1.250000
 11
-2.109499
 21
1.250000
  0
LINE
  8
Layer0$C$L0
 10
-3.234499
 20
-0.250000
 11
-2.109499
 21
-0.250000
  0
LINE
  8
Layer0$C$L0
 10
-2.109375
 20
1.500000
 11
0.109375
 21
1.500000
  0
LINE
  8
Layer0$C$L0
 10
-2.109375
 20
-0.500000
 11
0.109375
 21
-0.500000
  0
LINE
  8
Layer0$C$L0
 10
-2.109375
 20
1.500000
 11
-2.109375
 21
-0.500000
  0
LINE
  8
Layer0$C$L0
 10
0.109375
 20
1.500000
 11
0.109375
 21
-0.500000
  0
LINE
  8
Layer0$C$L0
 10
1.234499
 20
-0.250000
 11
0.109499
 21
-0.250000
  0
LINE
  8
Layer0$C$L0
 10
1.234499
 20
1.250000
 11
0.109499
 21
1.250000
  0
LINE
  8
Layer0$C$L0
 10
1.234499
 20
1.250000
 11
1.234499
 21
-0.250000
  0
LINE
  8
Layer0$C$L0
 10
0.453499
 20
0.702999
 11
0.765499
 21
0.702999
  0
LINE
  8
Layer0$C$L0
 10
0.453499
 20
0.296999
 11
0.765499
 21
0.296999
  0
ARC
  8
Layer0$C$L0
 10
0.453499
 20
0.500000
 40
0.203000
100
AcDbArc
 50
90.000003
 51
270.000001
  0
ARC
  8
Layer0$C$L0
 10
0.765499
 20
0.500000
 40
0.203000
100
AcDbArc
 50
270.000001
 51
449.999992
  0
ENDSEC
  0
EOF
