  0
SECTION
  2
HEADER
  9
$ACADVER
  1
AC1009
  9
$ANGBASE
 50
0.000000
  9
$ANGDIR
 70
     0
  9
$ATTDIA
 70
     0
  9
$ATTMODE
 70
     1
  9
$ATTREQ
 70
     1
  9
$AUNITS
 70
     0
  9
$AUPREC
 70
     0
  9
$AXISMODE
 70
     0
  9
$AXISUNIT
 10
0.000000
 20
0.000000
  9
$BLIPMODE
 70
     1
  9
$CECOLOR
 62
   256
  9
$CELTYPE
  6
BYLAYER
  9
$CHAMFERA
 40
0.000000
  9
$CHAMFERB
 40
0.000000
  9
$CLAYER
  8
0
  9
$COORDS
 70
     0
  9
$DIMALT
 70
     0
  9
$DIMALTD
 70
     2
  9
$DIMALTF
 40
25.400000
  9
$DIMAPOST
  1

  9
$DIMASO
 70
     1
  9
$DIMASZ
 40
0.153877
  9
$DIMBLK
  1

  9
$DIMBLK1
  1

  9
$DIMBLK2
  1

  9
$DIMCEN
 40
9.000000E-02
  9
$DIMDLE
 40
0.000000
  9
$DIMDLI
 40
0.380000
  9
$DIMEXE
 40
0.150000
  9
$DIMEXO
 40
0.100000
  9
$DIMLFAC
 40
1.000000
  9
$DIMLIM
 70
     0
  9
$DIMPOST
  1

  9
$DIMRND
 40
0.000000
  9
$DIMSCALE
 40
1.000000
  9
$DIMSE1
 70
     0
  9
$DIMSE2
 70
     0
  9
$DIMSHO
 70
     0
  9
$DIMTAD
 70
     0
  9
$DIMTIH
 70
     0
  9
$DIMTM
 40
0.000000
  9
$DIMTOH
 70
     1
  9
$DIMTOL
 70
     0
  9
$DIMTP
 40
0.000000
  9
$DIMTSZ
 40
0.000000
  9
$DIMTXT
 40
0.120000
  9
$DIMZIN
 70
     0
  9
$DRAGMODE
 70
     1
  9
$DWGCODEPAGE
  3
ansi_1252
  9
$ELEVATION
 40
0.000000
  9
$EXTMAX
 10
5.112501
 20
4.171687
 30
0.000000
  9
$EXTMIN
 10
-5.625000
 20
-3.890000
 30
0.000000
  9
$FASTZOOM
 70
     1
  9
$FILLETRAD
 40
6.250000E-02
  9
$FILLMODE
 70
     1
  9
$GRIDMODE
 70
     0
  9
$GRIDUNIT
 10
0.000000
 20
0.000000
  9
$INSBASE
 10
0.000000
 20
0.000000
 30
0.000000
  9
$LIMCHECK
 70
     0
  9
$LIMMAX
 10
5.112501
 20
4.171687
  9
$LIMMIN
 10
-5.625000
 20
-3.890000
  9
$LTSCALE
 40
1.000000
  9
$LUNITS
 70
     2
  9
$LUPREC
 70
     3
  9
$MEASUREMENT
 70
     0
  9
$MENU
  1
ACAD
  9
$MIRRTEXT
 70
     0
  9
$ORTHOMODE
 70
     0
  9
$OSMODE
 70
     0
  9
$PDMODE
 70
     0
  9
$PDSIZE
 40
0.000000
  9
$PLINEWID
 40
0.000000
  9
$PROXYGRAPHICS
 70
     0
  9
$QTEXTMODE
 70
     0
  9
$REGENMODE
 70
     1
  9
$SKETCHINC
 40
0.100000
  9
$SKPOLY
 70
     0
  9
$SNAPANG
 50
0.000000
  9
$SNAPBASE
 10
0.000000
 20
0.000000
  9
$SNAPISOPAIR
 70
     0
  9
$SNAPMODE
 70
     0
  9
$SNAPSTYLE
 70
     0
  9
$SNAPUNIT
 10
1.000000
 20
1.000000
  9
$SPLFRAME
 70
     0
  9
$SPLINESEGS
 70
     8
  9
$TDCREATE
 40
2453313.414167
  9
$TDINDWG
 40
0.000000
  9
$TDUPDATE
 40
2453313.414167
  9
$TDUSRTIMER
 40
0.000000
  9
$TEXTSIZE
 40
0.120000
  9
$TEXTSTYLE
  7
STANDARD
  9
$THICKNESS
 40
0.000000
  9
$TRACEWID
 40
5.000000E-02
  9
$USERI1
 70
     0
  9
$USERI2
 70
     0
  9
$USERI3
 70
     0
  9
$USERI4
 70
     0
  9
$USERI5
 70
     0
  9
$USERR1
 40
0.000000
  9
$USERR2
 40
0.000000
  9
$USERR3
 40
0.000000
  9
$USERR4
 40
0.000000
  9
$USERR5
 40
0.000000
  9
$USRTIMER
 70
     1
  9
$VIEWCTR
 10
-0.256249
 20
0.140843
  9
$VIEWDIR
 10
0.000000
 20
0.000000
 30
1.000000
  9
$VIEWSIZE
 40
8.061687
  0
ENDSEC
  0
SECTION
  2
TABLES
  0
TABLE
  2
LTYPE
 70
     4
  0
LTYPE
  2
SOLID
  3
Solid
 70
    64
 72
    65
 73
     0
 40
0.000000
  0
LTYPE
  2
CENTERLINE
  3
Centerline
 70
    64
 72
    65
 73
     4
 40
1.000000
 49
0.750000
 49
-6.250000E-02
 49
0.125000
 49
-6.250000E-02
  0
LTYPE
  2
CONSTRUCTION
  3
Construction
 70
    64
 72
    65
 73
     2
 40
4.000000E-02
 49
1.000000E-02
 49
-3.000000E-02
  0
LTYPE
  2
GAP
  3
Gap
 70
    64
 72
    65
 73
     3
 40
100.060000
 49
0.000000
 49
-6.000000E-02
 49
100.000000
  0
ENDTAB
  0
TABLE
  2
LAYER
 70
     5
  0
LAYER
  2
Layer0$C$L0
 70
     0
  6
SOLID
 62
     2
  0
LAYER
  2
Layer0$C$L0$B
 70
     0
  6
SOLID
 62
    -2
  0
LAYER
  2
Layer2$C$L2
 70
     0
  6
SOLID
 62
     2
  0
LAYER
  2
Layer10$C$L10
 70
     0
  6
SOLID
 62
     4
  0
LAYER
  2
Layer120$C$L120
 70
     0
  6
SOLID
 62
     7
  0
ENDTAB
  0
TABLE
  2
STYLE
 70
     1
  0
STYLE
  2
STANDARD
  3
txt
  4

 40
0.000000
 41
1.000000
 42
0.100000
 50
0.000000
 70
     0
 71
     0
  0
ENDTAB
  0
TABLE
  2
DIMSTYLE
 70
     2
  0
DIMSTYLE
  2
STANDARD
 70
     0
  3

  4

  5

  6

  7

 40
1.000000
 41
0.180000
 42
0.000000
 43
0.380000
 44
0.000000
 45
0.000000
 46
0.000000
 47
0.000000
 48
0.000000
140
0.156000
141
9.000000E-02
142
0.000000
143
1.000000
144
1.000000
145
0.000000
146
1.000000
147
7.800000E-02
 71
     0
 72
     0
 73
     0
 74
     0
 75
     0
 76
     0
 77
     3
 78
     0
170
     0
171
     0
172
     0
173
     0
174
     0
175
     0
176
     0
177
     0
178
     0
270
     2
271
     2
272
     2
273
     2
274
     2
275
     1
280
     0
281
     0
282
     0
283
     1
284
     0
285
     0
286
     0
287
     3
288
     0
  0
DIMSTYLE
  2
DIM1
 70
     1
  3

  4

  5

  6

  7

 40
1.000000
 41
0.153877
 42
0.100000
 43
0.380000
 44
0.150000
 45
0.000000
 46
0.000000
 47
0.000000
 48
0.000000
140
0.100000
141
9.000000E-02
142
0.000000
143
25.400000
144
1.000000
145
0.000000
146
1.000000
147
5.000000E-02
 71
     0
 72
     0
 73
     1
 74
     1
 75
     0
 76
     0
 77
     0
 78
     0
170
     1
171
     1
172
     0
173
     0
174
     0
175
     0
176
     0
177
     0
178
     0
270
     2
271
     2
272
     2
273
     2
274
     1
275
     1
280
     0
281
     0
282
     0
283
     1
284
     0
285
     0
286
     0
287
     3
288
     0
  0
ENDTAB
  0
TABLE
  2
APPID
  5
1
100
AcDbSymbolTable
 70
     1
  0
APPID
  5
2
100
AcDbSymbolTableRecord
100
AcDbRegAppTableRecord
  2
ACAD
 70
     0
  0
ENDTAB
  0
ENDSEC
  0
SECTION
  2
BLOCKS
  0
BLOCK
  8
Layer10$C$L10
  2
*D0
 70
     1
 10
0.000000
 20
0.000000
  0
SOLID
  8
Layer10$C$L10
 10
1.641418
 20
1.431566
 11
1.702287
 21
1.431566
 12
1.671852
 22
1.584569
 13
1.671852
 23
1.584569
  0
SOLID
  8
Layer10$C$L10
 10
1.702287
 20
1.237571
 11
1.641418
 21
1.237571
 12
1.671852
 22
1.084569
 13
1.671852
 23
1.084569
  0
LINE
  8
Layer10$C$L10
 10
1.671852
 20
1.584569
 11
1.671852
 21
1.084569
  0
LINE
  8
Layer10$C$L10
 10
1.671852
 20
1.084569
 11
1.671852
 21
0.917365
  0
LINE
  8
Layer10$C$L10
  6
GAP
 10
1.153737
 20
1.584569
 11
1.821853
 21
1.584569
  0
LINE
  8
Layer10$C$L10
  6
GAP
 10
1.153737
 20
1.084569
 11
1.821853
 21
1.084569
  0
TEXT
  8
Layer10$C$L10
 10
1.385222
 20
0.767365
 40
0.100000
  1
  .50
 72
     5
 11
1.858483
 21
0.767365
  0
LINE
  8
Layer10$C$L10
 10
1.385222
 20
0.692365
 11
1.348592
 21
0.692365
  0
LINE
  8
Layer10$C$L10
 10
1.348592
 20
0.692365
 11
1.348592
 21
0.492365
  0
LINE
  8
Layer10$C$L10
 10
1.348592
 20
0.492365
 11
1.385222
 21
0.492365
  0
LINE
  8
Layer10$C$L10
 10
1.985222
 20
0.692365
 11
2.021852
 21
0.692365
  0
TEXT
  8
Layer10$C$L10
 10
1.385222
 20
0.542365
 40
0.100000
  1
12.7mm
 72
     5
 11
1.958483
 21
0.542365
  0
LINE
  8
Layer10$C$L10
 10
2.021852
 20
0.692365
 11
2.021852
 21
0.492365
  0
LINE
  8
Layer10$C$L10
 10
2.021852
 20
0.492365
 11
1.985222
 21
0.492365
  0
ENDBLK
  8
Layer10$C$L10
  0
BLOCK
  8
Layer10$C$L10
  2
*D1
 70
     1
 10
0.000000
 20
0.000000
  0
SOLID
  8
Layer10$C$L10
 10
-0.722394
 20
2.645490
 11
-0.722394
 21
2.706359
 12
-0.875396
 22
2.675925
 13
-0.875396
 23
2.675925
  0
LINE
  8
Layer10$C$L10
 10
-0.875396
 20
2.675925
 11
-0.335255
 21
2.675925
  0
SOLID
  8
Layer10$C$L10
 10
0.625144
 20
2.706359
 11
0.625144
 21
2.645490
 12
0.778147
 22
2.675925
 13
0.778147
 23
2.675925
  0
LINE
  8
Layer10$C$L10
 10
0.778147
 20
2.675925
 11
0.238005
 21
2.675925
  0
LINE
  8
Layer10$C$L10
  6
GAP
 10
-0.875396
 20
1.675317
 11
-0.875396
 21
2.825925
  0
LINE
  8
Layer10$C$L10
  6
GAP
 10
0.778147
 20
1.675317
 11
0.778147
 21
2.825925
  0
TEXT
  8
Layer10$C$L10
 10
-0.285255
 20
2.625925
 40
0.100000
  1
 1.65
 72
     5
 11
0.188005
 21
2.625925
  0
LINE
  8
Layer10$C$L10
 10
-0.285255
 20
2.550925
 11
-0.321885
 21
2.550925
  0
LINE
  8
Layer10$C$L10
 10
-0.321885
 20
2.550925
 11
-0.321885
 21
2.350925
  0
LINE
  8
Layer10$C$L10
 10
-0.321885
 20
2.350925
 11
-0.285255
 21
2.350925
  0
LINE
  8
Layer10$C$L10
 10
0.314745
 20
2.550925
 11
0.351375
 21
2.550925
  0
TEXT
  8
Layer10$C$L10
 10
-0.285255
 20
2.400925
 40
0.100000
  1
42.0mm
 72
     5
 11
0.288005
 21
2.400925
  0
LINE
  8
Layer10$C$L10
 10
0.351375
 20
2.550925
 11
0.351375
 21
2.350925
  0
LINE
  8
Layer10$C$L10
 10
0.351375
 20
2.350925
 11
0.314745
 21
2.350925
  0
ENDBLK
  8
Layer10$C$L10
  0
BLOCK
  8
Layer10$C$L10
  2
*D2
 70
     1
 10
0.000000
 20
0.000000
  0
SOLID
  8
Layer10$C$L10
 10
-0.407433
 20
2.169803
 11
-0.407433
 21
2.230671
 12
-0.560436
 22
2.200237
 13
-0.560436
 23
2.200237
  0
LINE
  8
Layer10$C$L10
 10
-0.560436
 20
2.200237
 11
-0.335255
 21
2.200237
  0
SOLID
  8
Layer10$C$L10
 10
0.310184
 20
2.230671
 11
0.310184
 21
2.169803
 12
0.463186
 22
2.200237
 13
0.463186
 23
2.200237
  0
LINE
  8
Layer10$C$L10
 10
0.463186
 20
2.200237
 11
0.238005
 21
2.200237
  0
LINE
  8
Layer10$C$L10
  6
GAP
 10
-0.560436
 20
1.684569
 11
-0.560436
 21
2.350237
  0
LINE
  8
Layer10$C$L10
  6
GAP
 10
0.463186
 20
1.684569
 11
0.463186
 21
2.350237
  0
TEXT
  8
Layer10$C$L10
 10
-0.285255
 20
2.150237
 40
0.100000
  1
 1.02
 72
     5
 11
0.188005
 21
2.150237
  0
LINE
  8
Layer10$C$L10
 10
-0.285255
 20
2.075237
 11
-0.321885
 21
2.075237
  0
LINE
  8
Layer10$C$L10
 10
-0.321885
 20
2.075237
 11
-0.321885
 21
1.875237
  0
LINE
  8
Layer10$C$L10
 10
-0.321885
 20
1.875237
 11
-0.285255
 21
1.875237
  0
LINE
  8
Layer10$C$L10
 10
0.314745
 20
2.075237
 11
0.351375
 21
2.075237
  0
TEXT
  8
Layer10$C$L10
 10
-0.285255
 20
1.925237
 40
0.100000
  1
26.0mm
 72
     5
 11
0.288005
 21
1.925237
  0
LINE
  8
Layer10$C$L10
 10
0.351375
 20
2.075237
 11
0.351375
 21
1.875237
  0
LINE
  8
Layer10$C$L10
 10
0.351375
 20
1.875237
 11
0.314745
 21
1.875237
  0
ENDBLK
  8
Layer10$C$L10
  0
BLOCK
  8
Layer10$C$L10
  2
*D3
 70
     1
 10
0.000000
 20
0.000000
  0
SOLID
  8
Layer10$C$L10
 10
-2.577952
 20
-0.108470
 11
-2.517084
 21
-0.108470
 12
-2.547518
 22
4.453276E-02
 13
-2.547518
 23
4.453276E-02
  0
LINE
  8
Layer10$C$L10
 10
-2.547518
 20
4.453276E-02
 11
-2.547518
 21
-0.191797
  0
SOLID
  8
Layer10$C$L10
 10
-2.517084
 20
-0.700125
 11
-2.577952
 21
-0.700125
 12
-2.547518
 22
-0.853127
 13
-2.547518
 23
-0.853127
  0
LINE
  8
Layer10$C$L10
 10
-2.547518
 20
-0.853127
 11
-2.547518
 21
-0.616797
  0
LINE
  8
Layer10$C$L10
  6
GAP
 10
-0.539178
 20
4.453276E-02
 11
-2.697518
 21
4.453276E-02
  0
LINE
  8
Layer10$C$L10
  6
GAP
 10
-1.250987
 20
-0.853127
 11
-2.697518
 21
-0.853127
  0
TEXT
  8
Layer10$C$L10
 10
-2.834148
 20
-0.341797
 40
0.100000
  1
  .90
 72
     5
 11
-2.360888
 21
-0.341797
  0
LINE
  8
Layer10$C$L10
 10
-2.834148
 20
-0.416797
 11
-2.870778
 21
-0.416797
  0
LINE
  8
Layer10$C$L10
 10
-2.870778
 20
-0.416797
 11
-2.870778
 21
-0.616797
  0
LINE
  8
Layer10$C$L10
 10
-2.870778
 20
-0.616797
 11
-2.834148
 21
-0.616797
  0
LINE
  8
Layer10$C$L10
 10
-2.234148
 20
-0.416797
 11
-2.197518
 21
-0.416797
  0
TEXT
  8
Layer10$C$L10
 10
-2.834148
 20
-0.566797
 40
0.100000
  1
22.8mm
 72
     5
 11
-2.260888
 21
-0.566797
  0
LINE
  8
Layer10$C$L10
 10
-2.197518
 20
-0.416797
 11
-2.197518
 21
-0.616797
  0
LINE
  8
Layer10$C$L10
 10
-2.197518
 20
-0.616797
 11
-2.234148
 21
-0.616797
  0
ENDBLK
  8
Layer10$C$L10
  0
BLOCK
  8
Layer10$C$L10
  2
*D4
 70
     1
 10
0.000000
 20
0.000000
  0
SOLID
  8
Layer10$C$L10
 10
-1.933186
 20
-0.620125
 11
-1.994055
 21
-0.620125
 12
-1.963620
 22
-0.773127
 13
-1.963620
 23
-0.773127
  0
LINE
  8
Layer10$C$L10
 10
-1.963620
 20
-0.773127
 11
-1.963620
 21
-0.461127
  0
SOLID
  8
Layer10$C$L10
 10
-1.994055
 20
-1.006130
 11
-1.933186
 21
-1.006130
 12
-1.963620
 22
-0.853127
 13
-1.963620
 23
-0.853127
  0
LINE
  8
Layer10$C$L10
 10
-1.963620
 20
-0.853127
 11
-1.963620
 21
-1.244310
  0
LINE
  8
Layer10$C$L10
  6
GAP
 10
-1.250987
 20
-0.773127
 11
-2.113621
 21
-0.773127
  0
TEXT
  8
Layer10$C$L10
  6
GAP
 10
-2.200251
 20
-1.394310
 40
0.100000
  1
 .08
 72
     5
 11
-1.826990
 21
-1.394310
  0
LINE
  8
Layer10$C$L10
 10
-2.200251
 20
-1.469310
 11
-2.236881
 21
-1.469310
  0
LINE
  8
Layer10$C$L10
 10
-2.236881
 20
-1.469310
 11
-2.236881
 21
-1.669310
  0
LINE
  8
Layer10$C$L10
 10
-2.236881
 20
-1.669310
 11
-2.200251
 21
-1.669310
  0
LINE
  8
Layer10$C$L10
 10
-1.700251
 20
-1.469310
 11
-1.663621
 21
-1.469310
  0
TEXT
  8
Layer10$C$L10
 10
-2.200251
 20
-1.619310
 40
0.100000
  1
2.0mm
 72
     5
 11
-1.726990
 21
-1.619310
  0
LINE
  8
Layer10$C$L10
 10
-1.663621
 20
-1.469310
 11
-1.663621
 21
-1.669310
  0
LINE
  8
Layer10$C$L10
 10
-1.663621
 20
-1.669310
 11
-1.700251
 21
-1.669310
  0
ENDBLK
  8
Layer10$C$L10
  0
BLOCK
  8
Layer10$C$L10
  2
*D5
 70
     1
 10
0.000000
 20
0.000000
  0
SOLID
  8
Layer10$C$L10
 10
-0.997984
 20
-1.444452
 11
-0.997984
 21
-1.383584
 12
-1.150987
 22
-1.414018
 13
-1.150987
 23
-1.414018
  0
LINE
  8
Layer10$C$L10
 10
-1.150987
 20
-1.414018
 11
-0.335255
 21
-1.414018
  0
SOLID
  8
Layer10$C$L10
 10
0.900735
 20
-1.383584
 11
0.900735
 21
-1.444452
 12
1.053737
 22
-1.414018
 13
1.053737
 23
-1.414018
  0
LINE
  8
Layer10$C$L10
 10
1.053737
 20
-1.414018
 11
0.238005
 21
-1.414018
  0
LINE
  8
Layer10$C$L10
  6
GAP
 10
-1.150987
 20
-0.953127
 11
-1.150987
 21
-1.564018
  0
LINE
  8
Layer10$C$L10
  6
GAP
 10
1.053737
 20
-0.953127
 11
1.053737
 21
-1.564018
  0
TEXT
  8
Layer10$C$L10
 10
-0.285255
 20
-1.464018
 40
0.100000
  1
 2.20
 72
     5
 11
0.188005
 21
-1.464018
  0
LINE
  8
Layer10$C$L10
 10
-0.285255
 20
-1.539018
 11
-0.321885
 21
-1.539018
  0
LINE
  8
Layer10$C$L10
 10
-0.321885
 20
-1.539018
 11
-0.321885
 21
-1.739018
  0
LINE
  8
Layer10$C$L10
 10
-0.321885
 20
-1.739018
 11
-0.285255
 21
-1.739018
  0
LINE
  8
Layer10$C$L10
 10
0.314745
 20
-1.539018
 11
0.351375
 21
-1.539018
  0
TEXT
  8
Layer10$C$L10
 10
-0.285255
 20
-1.689018
 40
0.100000
  1
56.0mm
 72
     5
 11
0.288005
 21
-1.689018
  0
LINE
  8
Layer10$C$L10
 10
0.351375
 20
-1.539018
 11
0.351375
 21
-1.739018
  0
LINE
  8
Layer10$C$L10
 10
0.351375
 20
-1.739018
 11
0.314745
 21
-1.739018
  0
ENDBLK
  8
Layer10$C$L10
  0
BLOCK
  8
Layer10$C$L10
  2
*D6
 70
     1
 10
0.000000
 20
0.000000
  0
SOLID
  8
Layer10$C$L10
 10
-4.125296
 20
0.795071
 11
-4.125296
 21
0.855939
 12
-4.278299
 22
0.825505
 13
-4.278299
 23
0.825505
  0
SOLID
  8
Layer10$C$L10
 10
-3.611417
 20
0.855939
 11
-3.611417
 21
0.795071
 12
-3.458414
 22
0.825505
 13
-3.458414
 23
0.825505
  0
LINE
  8
Layer10$C$L10
 10
-4.278299
 20
0.825505
 11
-3.458414
 21
0.825505
  0
LINE
  8
Layer10$C$L10
 10
-3.458414
 20
0.825505
 11
-3.179605
 21
0.825505
  0
LINE
  8
Layer10$C$L10
  6
GAP
 10
-4.278299
 20
-0.265431
 11
-4.278299
 21
0.975505
  0
LINE
  8
Layer10$C$L10
  6
GAP
 10
-3.458414
 20
-0.265431
 11
-3.458414
 21
0.975505
  0
LINE
  8
Layer10$C$L10
 10
-3.036331
 20
0.900705
 11
-3.122915
 21
0.750465
  0
POLYLINE
  8
Layer10$C$L10
 10
0.000000
 20
0.000000
 30
0.000000
 66
     1
 70
     0
  0
VERTEX
  8
Layer10$C$L10
 10
-3.033201
 20
0.844678
  0
VERTEX
  8
Layer10$C$L10
 10
-3.060432
 20
0.871909
  0
VERTEX
  8
Layer10$C$L10
 10
-3.098774
 20
0.871909
  0
VERTEX
  8
Layer10$C$L10
 10
-3.125790
 20
0.844678
  0
VERTEX
  8
Layer10$C$L10
 10
-3.125790
 20
0.806336
  0
SEQEND
  8
Layer10$C$L10
  0
POLYLINE
  8
Layer10$C$L10
 10
0.000000
 20
0.000000
 30
0.000000
 66
     1
 70
     0
  0
VERTEX
  8
Layer10$C$L10
 10
-3.125790
 20
0.806336
  0
VERTEX
  8
Layer10$C$L10
 10
-3.098774
 20
0.779320
  0
VERTEX
  8
Layer10$C$L10
 10
-3.060432
 20
0.779320
  0
VERTEX
  8
Layer10$C$L10
 10
-3.033201
 20
0.806336
  0
VERTEX
  8
Layer10$C$L10
 10
-3.033201
 20
0.844678
  0
SEQEND
  8
Layer10$C$L10
  0
POLYLINE
  8
Layer10$C$L10
 10
0.000000
 20
0.000000
 30
0.000000
 66
     1
 70
     1
  0
VERTEX
  8
Layer10$C$L10
 10
-2.774965
 20
0.775505
  0
VERTEX
  8
Layer10$C$L10
 10
-2.767923
 20
0.775505
  0
VERTEX
  8
Layer10$C$L10
 10
-2.767923
 20
0.782156
  0
VERTEX
  8
Layer10$C$L10
 10
-2.774965
 20
0.782156
  0
VERTEX
  8
Layer10$C$L10
 10
-2.774965
 20
0.775505
  0
SEQEND
  8
Layer10$C$L10
  0
POLYLINE
  8
Layer10$C$L10
 10
0.000000
 20
0.000000
 30
0.000000
 66
     1
 70
     0
  0
VERTEX
  8
Layer10$C$L10
 10
-2.646326
 20
0.775505
  0
VERTEX
  8
Layer10$C$L10
 10
-2.632241
 20
0.788808
  0
VERTEX
  8
Layer10$C$L10
 10
-2.632241
 20
0.815569
  0
VERTEX
  8
Layer10$C$L10
 10
-2.646326
 20
0.828715
  0
SEQEND
  8
Layer10$C$L10
  0
POLYLINE
  8
Layer10$C$L10
 10
0.000000
 20
0.000000
 30
0.000000
 66
     1
 70
     0
  0
VERTEX
  8
Layer10$C$L10
 10
-2.689285
 20
0.828715
  0
VERTEX
  8
Layer10$C$L10
 10
-2.703607
 20
0.815569
  0
VERTEX
  8
Layer10$C$L10
 10
-2.703607
 20
0.788808
  0
VERTEX
  8
Layer10$C$L10
 10
-2.689285
 20
0.775505
  0
VERTEX
  8
Layer10$C$L10
 10
-2.646326
 20
0.775505
  0
SEQEND
  8
Layer10$C$L10
  0
POLYLINE
  8
Layer10$C$L10
 10
0.000000
 20
0.000000
 30
0.000000
 66
     1
 70
     0
  0
VERTEX
  8
Layer10$C$L10
 10
-2.646326
 20
0.875665
  0
VERTEX
  8
Layer10$C$L10
 10
-2.632241
 20
0.861893
  0
VERTEX
  8
Layer10$C$L10
 10
-2.632241
 20
0.842174
  0
VERTEX
  8
Layer10$C$L10
 10
-2.646326
 20
0.828715
  0
VERTEX
  8
Layer10$C$L10
 10
-2.689285
 20
0.828715
  0
SEQEND
  8
Layer10$C$L10
  0
POLYLINE
  8
Layer10$C$L10
 10
0.000000
 20
0.000000
 30
0.000000
 66
     1
 70
     0
  0
VERTEX
  8
Layer10$C$L10
 10
-2.689285
 20
0.828715
  0
VERTEX
  8
Layer10$C$L10
 10
-2.703607
 20
0.842174
  0
VERTEX
  8
Layer10$C$L10
 10
-2.703607
 20
0.861893
  0
VERTEX
  8
Layer10$C$L10
 10
-2.689285
 20
0.875665
  0
VERTEX
  8
Layer10$C$L10
 10
-2.646326
 20
0.875665
  0
SEQEND
  8
Layer10$C$L10
  0
LINE
  8
Layer10$C$L10
 10
-2.532241
 20
0.835601
 11
-2.553525
 21
0.815569
  0
POLYLINE
  8
Layer10$C$L10
 10
0.000000
 20
0.000000
 30
0.000000
 66
     1
 70
     0
  0
VERTEX
  8
Layer10$C$L10
 10
-2.532241
 20
0.775505
  0
VERTEX
  8
Layer10$C$L10
 10
-2.603607
 20
0.775505
  0
VERTEX
  8
Layer10$C$L10
 10
-2.603607
 20
0.788808
  0
VERTEX
  8
Layer10$C$L10
 10
-2.582164
 20
0.808840
  0
VERTEX
  8
Layer10$C$L10
 10
-2.553525
 20
0.815569
  0
SEQEND
  8
Layer10$C$L10
  0
POLYLINE
  8
Layer10$C$L10
 10
0.000000
 20
0.000000
 30
0.000000
 66
     1
 70
     0
  0
VERTEX
  8
Layer10$C$L10
 10
-2.603607
 20
0.855633
  0
VERTEX
  8
Layer10$C$L10
 10
-2.582164
 20
0.875665
  0
VERTEX
  8
Layer10$C$L10
 10
-2.553525
 20
0.875665
  0
VERTEX
  8
Layer10$C$L10
 10
-2.532241
 20
0.855633
  0
VERTEX
  8
Layer10$C$L10
 10
-2.532241
 20
0.835601
  0
SEQEND
  8
Layer10$C$L10
  0
LINE
  8
Layer10$C$L10
 10
-2.933045
 20
0.574505
 11
-2.969675
 21
0.574505
  0
LINE
  8
Layer10$C$L10
 10
-2.969675
 20
0.574505
 11
-2.969675
 21
0.374505
  0
LINE
  8
Layer10$C$L10
 10
-2.969675
 20
0.374505
 11
-2.933045
 21
0.374505
  0
LINE
  8
Layer10$C$L10
 10
-2.932241
 20
0.610601
 11
-2.953525
 21
0.590569
  0
POLYLINE
  8
Layer10$C$L10
 10
0.000000
 20
0.000000
 30
0.000000
 66
     1
 70
     0
  0
VERTEX
  8
Layer10$C$L10
 10
-2.932241
 20
0.550505
  0
VERTEX
  8
Layer10$C$L10
 10
-3.003607
 20
0.550505
  0
VERTEX
  8
Layer10$C$L10
 10
-3.003607
 20
0.563808
  0
VERTEX
  8
Layer10$C$L10
 10
-2.982164
 20
0.583840
  0
VERTEX
  8
Layer10$C$L10
 10
-2.953525
 20
0.590569
  0
SEQEND
  8
Layer10$C$L10
  0
POLYLINE
  8
Layer10$C$L10
 10
0.000000
 20
0.000000
 30
0.000000
 66
     1
 70
     0
  0
VERTEX
  8
Layer10$C$L10
 10
-3.003607
 20
0.630633
  0
VERTEX
  8
Layer10$C$L10
 10
-2.982164
 20
0.650665
  0
VERTEX
  8
Layer10$C$L10
 10
-2.953525
 20
0.650665
  0
VERTEX
  8
Layer10$C$L10
 10
-2.932241
 20
0.630633
  0
VERTEX
  8
Layer10$C$L10
 10
-2.932241
 20
0.610601
  0
SEQEND
  8
Layer10$C$L10
  0
POLYLINE
  8
Layer10$C$L10
 10
0.000000
 20
0.000000
 30
0.000000
 66
     1
 70
     0
  0
VERTEX
  8
Layer10$C$L10
 10
-2.832241
 20
0.623747
  0
VERTEX
  8
Layer10$C$L10
 10
-2.832241
 20
0.577110
  0
VERTEX
  8
Layer10$C$L10
 10
-2.853525
 20
0.550505
  0
VERTEX
  8
Layer10$C$L10
 10
-2.882164
 20
0.550505
  0
VERTEX
  8
Layer10$C$L10
 10
-2.903605
 20
0.577110
  0
SEQEND
  8
Layer10$C$L10
  0
POLYLINE
  8
Layer10$C$L10
 10
0.000000
 20
0.000000
 30
0.000000
 66
     1
 70
     0
  0
VERTEX
  8
Layer10$C$L10
 10
-2.903605
 20
0.577110
  0
VERTEX
  8
Layer10$C$L10
 10
-2.903605
 20
0.623747
  0
VERTEX
  8
Layer10$C$L10
 10
-2.882164
 20
0.650665
  0
VERTEX
  8
Layer10$C$L10
 10
-2.853525
 20
0.650665
  0
VERTEX
  8
Layer10$C$L10
 10
-2.832241
 20
0.623747
  0
SEQEND
  8
Layer10$C$L10
  0
POLYLINE
  8
Layer10$C$L10
 10
0.000000
 20
0.000000
 30
0.000000
 66
     1
 70
     1
  0
VERTEX
  8
Layer10$C$L10
 10
-2.774965
 20
0.550505
  0
VERTEX
  8
Layer10$C$L10
 10
-2.767923
 20
0.550505
  0
VERTEX
  8
Layer10$C$L10
 10
-2.767923
 20
0.557156
  0
VERTEX
  8
Layer10$C$L10
 10
-2.774965
 20
0.557156
  0
VERTEX
  8
Layer10$C$L10
 10
-2.774965
 20
0.550505
  0
SEQEND
  8
Layer10$C$L10
  0
POLYLINE
  8
Layer10$C$L10
 10
0.000000
 20
0.000000
 30
0.000000
 66
     1
 70
     0
  0
VERTEX
  8
Layer10$C$L10
 10
-2.646326
 20
0.550505
  0
VERTEX
  8
Layer10$C$L10
 10
-2.632241
 20
0.563808
  0
VERTEX
  8
Layer10$C$L10
 10
-2.632241
 20
0.590569
  0
VERTEX
  8
Layer10$C$L10
 10
-2.646326
 20
0.603715
  0
SEQEND
  8
Layer10$C$L10
  0
POLYLINE
  8
Layer10$C$L10
 10
0.000000
 20
0.000000
 30
0.000000
 66
     1
 70
     0
  0
VERTEX
  8
Layer10$C$L10
 10
-2.689285
 20
0.603715
  0
VERTEX
  8
Layer10$C$L10
 10
-2.703607
 20
0.590569
  0
VERTEX
  8
Layer10$C$L10
 10
-2.703607
 20
0.563808
  0
VERTEX
  8
Layer10$C$L10
 10
-2.689285
 20
0.550505
  0
VERTEX
  8
Layer10$C$L10
 10
-2.646326
 20
0.550505
  0
SEQEND
  8
Layer10$C$L10
  0
POLYLINE
  8
Layer10$C$L10
 10
0.000000
 20
0.000000
 30
0.000000
 66
     1
 70
     0
  0
VERTEX
  8
Layer10$C$L10
 10
-2.646326
 20
0.650665
  0
VERTEX
  8
Layer10$C$L10
 10
-2.632241
 20
0.636893
  0
VERTEX
  8
Layer10$C$L10
 10
-2.632241
 20
0.617174
  0
VERTEX
  8
Layer10$C$L10
 10
-2.646326
 20
0.603715
  0
VERTEX
  8
Layer10$C$L10
 10
-2.689285
 20
0.603715
  0
SEQEND
  8
Layer10$C$L10
  0
POLYLINE
  8
Layer10$C$L10
 10
0.000000
 20
0.000000
 30
0.000000
 66
     1
 70
     0
  0
VERTEX
  8
Layer10$C$L10
 10
-2.689285
 20
0.603715
  0
VERTEX
  8
Layer10$C$L10
 10
-2.703607
 20
0.617174
  0
VERTEX
  8
Layer10$C$L10
 10
-2.703607
 20
0.636893
  0
VERTEX
  8
Layer10$C$L10
 10
-2.689285
 20
0.650665
  0
VERTEX
  8
Layer10$C$L10
 10
-2.646326
 20
0.650665
  0
SEQEND
  8
Layer10$C$L10
  0
LINE
  8
Layer10$C$L10
 10
-2.603605
 20
0.550505
 11
-2.603605
 21
0.617174
  0
POLYLINE
  8
Layer10$C$L10
 10
0.000000
 20
0.000000
 30
0.000000
 66
     1
 70
     0
  0
VERTEX
  8
Layer10$C$L10
 10
-2.567923
 20
0.550505
  0
VERTEX
  8
Layer10$C$L10
 10
-2.567923
 20
0.603715
  0
VERTEX
  8
Layer10$C$L10
 10
-2.582164
 20
0.617174
  0
VERTEX
  8
Layer10$C$L10
 10
-2.589285
 20
0.617174
  0
VERTEX
  8
Layer10$C$L10
 10
-2.603605
 20
0.603715
  0
SEQEND
  8
Layer10$C$L10
  0
POLYLINE
  8
Layer10$C$L10
 10
0.000000
 20
0.000000
 30
0.000000
 66
     1
 70
     0
  0
VERTEX
  8
Layer10$C$L10
 10
-2.532241
 20
0.550505
  0
VERTEX
  8
Layer10$C$L10
 10
-2.532241
 20
0.603715
  0
VERTEX
  8
Layer10$C$L10
 10
-2.546326
 20
0.617174
  0
VERTEX
  8
Layer10$C$L10
 10
-2.553525
 20
0.617174
  0
VERTEX
  8
Layer10$C$L10
 10
-2.567923
 20
0.603715
  0
SEQEND
  8
Layer10$C$L10
  0
LINE
  8
Layer10$C$L10
 10
-2.503605
 20
0.550505
 11
-2.503605
 21
0.617174
  0
POLYLINE
  8
Layer10$C$L10
 10
0.000000
 20
0.000000
 30
0.000000
 66
     1
 70
     0
  0
VERTEX
  8
Layer10$C$L10
 10
-2.467923
 20
0.550505
  0
VERTEX
  8
Layer10$C$L10
 10
-2.467923
 20
0.603715
  0
VERTEX
  8
Layer10$C$L10
 10
-2.482164
 20
0.617174
  0
VERTEX
  8
Layer10$C$L10
 10
-2.489285
 20
0.617174
  0
VERTEX
  8
Layer10$C$L10
 10
-2.503605
 20
0.603715
  0
SEQEND
  8
Layer10$C$L10
  0
POLYLINE
  8
Layer10$C$L10
 10
0.000000
 20
0.000000
 30
0.000000
 66
     1
 70
     0
  0
VERTEX
  8
Layer10$C$L10
 10
-2.432241
 20
0.550505
  0
VERTEX
  8
Layer10$C$L10
 10
-2.432241
 20
0.603715
  0
VERTEX
  8
Layer10$C$L10
 10
-2.446326
 20
0.617174
  0
VERTEX
  8
Layer10$C$L10
 10
-2.453525
 20
0.617174
  0
VERTEX
  8
Layer10$C$L10
 10
-2.467923
 20
0.603715
  0
SEQEND
  8
Layer10$C$L10
  0
LINE
  8
Layer10$C$L10
 10
-2.050083
 20
0.574505
 11
-2.013453
 21
0.574505
  0
LINE
  8
Layer10$C$L10
 10
-2.013453
 20
0.574505
 11
-2.013453
 21
0.374505
  0
LINE
  8
Layer10$C$L10
 10
-2.013453
 20
0.374505
 11
-2.050083
 21
0.374505
  0
ENDBLK
  8
Layer10$C$L10
  0
BLOCK
  8
Layer0$C$L0
  2
*X0
 70
     1
 10
0.000000
 20
0.000000
  0
LINE
  8
Layer0$C$L0
 10
4.877482
 20
-1.554191E-03
 11
4.889668
 21
1.063160E-02
  0
LINE
  8
Layer0$C$L0
 10
4.886739
 20
2.891550E-02
 11
4.853525
 21
-4.298434E-03
  0
LINE
  8
Layer0$C$L0
 10
4.830322
 20
-6.287912E-03
 11
4.883810
 21
4.719939E-02
  0
LINE
  8
Layer0$C$L0
 10
4.880880
 20
6.548329E-02
 11
4.807885
 21
-7.512460E-03
  0
LINE
  8
Layer0$C$L0
 10
4.786201
 20
-7.983072E-03
 11
4.862841
 21
6.865681E-02
  0
LINE
  8
Layer0$C$L0
 10
4.838506
 20
6.553490E-02
 11
4.765243
 21
-7.727982E-03
  0
LINE
  8
Layer0$C$L0
 10
4.745091
 20
-6.666402E-03
 11
4.818429
 21
6.667171E-02
  0
LINE
  8
Layer0$C$L0
 10
4.804770
 20
7.422546E-02
 11
4.725945
 21
-4.599073E-03
  0
LINE
  8
Layer0$C$L0
 10
4.708183
 20
-1.148099E-03
 11
4.800126
 21
9.079488E-02
  0
LINE
  8
Layer0$C$L0
 10
4.799984
 20
0.111866
 11
4.692246
 21
4.128182E-03
  0
LINE
  8
Layer0$C$L0
 10
4.885571
 20
0.197453
 11
4.881079
 21
0.192961
  0
LINE
  8
Layer0$C$L0
 10
4.799984
 20
0.133079
 11
4.678338
 21
1.143258E-02
  0
LINE
  8
Layer0$C$L0
 10
4.885571
 20
0.218666
 11
4.859866
 21
0.192961
  0
LINE
  8
Layer0$C$L0
 10
4.799984
 20
0.154292
 11
4.666494
 21
2.080268E-02
  0
LINE
  8
Layer0$C$L0
 10
4.885571
 20
0.239879
 11
4.838653
 21
0.192961
  0
LINE
  8
Layer0$C$L0
 10
4.799984
 20
0.175506
 11
4.656990
 21
3.251142E-02
  0
LINE
  8
Layer0$C$L0
 10
4.885571
 20
0.261093
 11
4.817440
 21
0.192961
  0
LINE
  8
Layer0$C$L0
 10
4.871875
 20
0.268610
 11
4.650315
 21
4.704990E-02
  0
LINE
  8
Layer0$C$L0
 10
4.850662
 20
0.268610
 11
4.646334
 21
6.428210E-02
  0
LINE
  8
Layer0$C$L0
 10
4.829449
 20
0.268610
 11
4.644312
 21
8.347376E-02
  0
LINE
  8
Layer0$C$L0
 10
4.808236
 20
0.268610
 11
4.644067
 21
0.104441
  0
LINE
  8
Layer0$C$L0
 10
4.517905
 20
-5.070965E-04
 11
4.516507
 21
-1.904964E-03
  0
LINE
  8
Layer0$C$L0
 10
4.799984
 20
0.281572
 11
4.644067
 21
0.125654
  0
LINE
  8
Layer0$C$L0
 10
4.517905
 20
2.070611E-02
 11
4.495294
 21
-1.904964E-03
  0
LINE
  8
Layer0$C$L0
 10
4.799984
 20
0.302785
 11
4.644067
 21
0.146868
  0
LINE
  8
Layer0$C$L0
 10
4.517905
 20
4.191931E-02
 11
4.474081
 21
-1.904964E-03
  0
LINE
  8
Layer0$C$L0
 10
4.799984
 20
0.323998
 11
4.644067
 21
0.168081
  0
LINE
  8
Layer0$C$L0
 10
4.517905
 20
6.313252E-02
 11
4.452868
 21
-1.904964E-03
  0
LINE
  8
Layer0$C$L0
 10
4.799984
 20
0.345211
 11
4.644067
 21
0.189294
  0
LINE
  8
Layer0$C$L0
 10
4.517905
 20
8.434572E-02
 11
4.431654
 21
-1.904964E-03
  0
LINE
  8
Layer0$C$L0
 10
4.799984
 20
0.366424
 11
4.626521
 21
0.192961
  0
LINE
  8
Layer0$C$L0
 10
4.517905
 20
0.105559
 11
4.410441
 21
-1.904964E-03
  0
LINE
  8
Layer0$C$L0
 10
4.775586
 20
0.363240
 11
4.605307
 21
0.192961
  0
LINE
  8
Layer0$C$L0
 10
4.517905
 20
0.126772
 11
4.389228
 21
-1.904964E-03
  0
LINE
  8
Layer0$C$L0
 10
4.743381
 20
0.352248
 11
4.586657
 21
0.195524
  0
LINE
  8
Layer0$C$L0
 10
4.517905
 20
0.147985
 11
4.372555
 21
2.634871E-03
  0
LINE
  8
Layer0$C$L0
 10
4.638530
 20
0.268610
 11
4.586657
 21
0.216737
  0
LINE
  8
Layer0$C$L0
 10
4.711176
 20
0.341256
 11
4.644067
 21
0.274147
  0
LINE
  8
Layer0$C$L0
 10
4.517905
 20
0.169199
 11
4.372555
 21
2.384808E-02
  0
LINE
  8
Layer0$C$L0
 10
4.617317
 20
0.268610
 11
4.586657
 21
0.237950
  0
LINE
  8
Layer0$C$L0
 10
4.678971
 20
0.330264
 11
4.644067
 21
0.295360
  0
LINE
  8
Layer0$C$L0
 10
4.517905
 20
0.190412
 11
4.358288
 21
3.079451E-02
  0
LINE
  8
Layer0$C$L0
 10
4.596104
 20
0.268610
 11
4.586657
 21
0.259164
  0
LINE
  8
Layer0$C$L0
 10
4.646766
 20
0.319272
 11
4.644067
 21
0.316573
  0
LINE
  8
Layer0$C$L0
 10
4.517905
 20
0.211625
 11
4.311284
 21
5.003541E-03
  0
LINE
  8
Layer0$C$L0
 10
4.517905
 20
0.232838
 11
4.281897
 21
-3.170433E-03
  0
LINE
  8
Layer0$C$L0
 10
4.517905
 20
0.254051
 11
4.257231
 21
-6.623076E-03
  0
LINE
  8
Layer0$C$L0
 10
4.317414
 20
7.477361E-02
 11
4.234738
 21
-7.902125E-03
  0
LINE
  8
Layer0$C$L0
 10
4.511250
 20
0.268610
 11
4.360613
 21
0.117973
  0
LINE
  8
Layer0$C$L0
 10
4.294462
 20
7.303433E-02
 11
4.213686
 21
-7.741352E-03
  0
LINE
  8
Layer0$C$L0
 10
4.490037
 20
0.268610
 11
4.362252
 21
0.140825
  0
LINE
  8
Layer0$C$L0
 10
4.275916
 20
7.570126E-02
 11
4.193987
 21
-6.227551E-03
  0
LINE
  8
Layer0$C$L0
 10
4.468824
 20
0.268610
 11
4.362252
 21
0.162038
  0
LINE
  8
Layer0$C$L0
 10
4.261143
 20
8.214171E-02
 11
4.175734
 21
-3.267384E-03
  0
LINE
  8
Layer0$C$L0
 10
4.447611
 20
0.268610
 11
4.362252
 21
0.183251
  0
LINE
  8
Layer0$C$L0
 10
4.250848
 20
9.306020E-02
 11
4.158939
 21
1.151254E-03
  0
LINE
  8
Layer0$C$L0
 10
4.426398
 20
0.268610
 11
4.362252
 21
0.204464
  0
LINE
  8
Layer0$C$L0
 10
4.245618
 20
0.109044
 11
4.143588
 21
7.013573E-03
  0
LINE
  8
Layer0$C$L0
 10
4.405185
 20
0.268610
 11
4.362252
 21
0.225678
  0
LINE
  8
Layer0$C$L0
 10
4.244953
 20
0.129592
 11
4.129766
 21
1.440426E-02
  0
LINE
  8
Layer0$C$L0
 10
4.383972
 20
0.268610
 11
4.362252
 21
0.246891
  0
LINE
  8
Layer0$C$L0
 10
4.244953
 20
0.150805
 11
4.117622
 21
2.347392E-02
  0
LINE
  8
Layer0$C$L0
 10
4.362758
 20
0.268610
 11
4.362252
 21
0.268104
  0
LINE
  8
Layer0$C$L0
 10
4.244953
 20
0.172018
 11
4.107303
 21
3.436779E-02
  0
LINE
  8
Layer0$C$L0
 10
4.244953
 20
0.193231
 11
4.099097
 21
4.737508E-02
  0
LINE
  8
Layer0$C$L0
 10
4.244953
 20
0.214445
 11
4.093106
 21
6.259754E-02
  0
LINE
  8
Layer0$C$L0
 10
4.244953
 20
0.235658
 11
4.089411
 21
8.011533E-02
  0
LINE
  8
Layer0$C$L0
 10
3.997189
 20
9.106799E-03
 11
3.986177
 21
-1.904964E-03
  0
LINE
  8
Layer0$C$L0
 10
4.244953
 20
0.256871
 11
4.088646
 21
0.100564
  0
LINE
  8
Layer0$C$L0
 10
3.997189
 20
3.032000E-02
 11
3.964964
 21
-1.904964E-03
  0
LINE
  8
Layer0$C$L0
 10
4.235479
 20
0.268610
 11
4.088646
 21
0.121777
  0
LINE
  8
Layer0$C$L0
 10
3.997189
 20
5.153321E-02
 11
3.943751
 21
-1.904964E-03
  0
LINE
  8
Layer0$C$L0
 10
4.214266
 20
0.268610
 11
4.088646
 21
0.142990
  0
LINE
  8
Layer0$C$L0
 10
3.997189
 20
7.274641E-02
 11
3.922538
 21
-1.904964E-03
  0
LINE
  8
Layer0$C$L0
 10
4.193053
 20
0.268610
 11
4.088646
 21
0.164203
  0
LINE
  8
Layer0$C$L0
 10
3.997189
 20
9.395961E-02
 11
3.901325
 21
-1.904964E-03
  0
LINE
  8
Layer0$C$L0
 10
4.171839
 20
0.268610
 11
4.088646
 21
0.185417
  0
LINE
  8
Layer0$C$L0
 10
3.997189
 20
0.115173
 11
3.880111
 21
-1.904964E-03
  0
LINE
  8
Layer0$C$L0
 10
4.150626
 20
0.268610
 11
4.088646
 21
0.206630
  0
LINE
  8
Layer0$C$L0
 10
3.997189
 20
0.136386
 11
3.858898
 21
-1.904964E-03
  0
LINE
  8
Layer0$C$L0
 10
4.129413
 20
0.268610
 11
4.088646
 21
0.227843
  0
LINE
  8
Layer0$C$L0
 10
3.997189
 20
0.157599
 11
3.841272
 21
1.682055E-03
  0
LINE
  8
Layer0$C$L0
 10
4.108200
 20
0.268610
 11
4.088646
 21
0.249056
  0
LINE
  8
Layer0$C$L0
 10
3.997021
 20
0.178645
 11
3.841272
 21
2.289526E-02
  0
LINE
  8
Layer0$C$L0
 10
3.994254
 20
0.197091
 11
3.841272
 21
4.410846E-02
  0
LINE
  8
Layer0$C$L0
 10
3.989119
 20
0.213169
 11
3.841272
 21
6.532167E-02
  0
LINE
  8
Layer0$C$L0
 10
3.981820
 20
0.227083
 11
3.841272
 21
8.653487E-02
  0
LINE
  8
Layer0$C$L0
 10
3.972314
 20
0.238791
 11
3.841272
 21
0.107748
  0
LINE
  8
Layer0$C$L0
 10
3.730500
 20
1.818938E-02
 11
3.710406
 21
-1.904964E-03
  0
LINE
  8
Layer0$C$L0
 10
3.960901
 20
0.248590
 11
3.841272
 21
0.128961
  0
LINE
  8
Layer0$C$L0
 10
3.730500
 20
3.940259E-02
 11
3.689193
 21
-1.904964E-03
  0
LINE
  8
Layer0$C$L0
 10
3.947785
 20
0.256688
 11
3.841272
 21
0.150174
  0
LINE
  8
Layer0$C$L0
 10
3.730500
 20
6.061579E-02
 11
3.667979
 21
-1.904964E-03
  0
LINE
  8
Layer0$C$L0
 10
3.933095
 20
0.263211
 11
3.838470
 21
0.168586
  0
LINE
  8
Layer0$C$L0
 10
3.730500
 20
8.182899E-02
 11
3.646766
 21
-1.904964E-03
  0
LINE
  8
Layer0$C$L0
 10
3.916925
 20
0.268254
 11
3.829282
 21
0.180611
  0
LINE
  8
Layer0$C$L0
 10
3.730500
 20
0.103042
 11
3.625553
 21
-1.904964E-03
  0
LINE
  8
Layer0$C$L0
 10
3.899303
 20
0.271845
 11
3.816163
 21
0.188705
  0
LINE
  8
Layer0$C$L0
 10
3.730500
 20
0.124255
 11
3.604340
 21
-1.904964E-03
  0
LINE
  8
Layer0$C$L0
 10
3.880244
 20
0.274000
 11
3.799294
 21
0.193049
  0
LINE
  8
Layer0$C$L0
 10
3.730724
 20
0.145693
 11
3.583126
 21
-1.904964E-03
  0
LINE
  8
Layer0$C$L0
 10
3.859807
 20
0.274776
 11
3.777565
 21
0.192533
  0
LINE
  8
Layer0$C$L0
 10
3.838057
 20
0.274238
 11
3.574453
 21
1.063470E-02
  0
LINE
  8
Layer0$C$L0
 10
3.814564
 20
0.271959
 11
3.574453
 21
3.184790E-02
  0
LINE
  8
Layer0$C$L0
 10
3.787749
 20
0.266357
 11
3.574453
 21
5.306111E-02
  0
LINE
  8
Layer0$C$L0
 10
3.750980
 20
0.250801
 11
3.574453
 21
7.427431E-02
  0
LINE
  8
Layer0$C$L0
 10
3.712966
 20
0.234001
 11
3.574453
 21
9.548751E-02
  0
LINE
  8
Layer0$C$L0
 10
3.464335
 20
6.582805E-03
 11
3.455847
 21
-1.904964E-03
  0
LINE
  8
Layer0$C$L0
 10
3.702233
 20
0.244480
 11
3.574453
 21
0.116701
  0
LINE
  8
Layer0$C$L0
 10
3.464335
 20
2.779601E-02
 11
3.434634
 21
-1.904964E-03
  0
LINE
  8
Layer0$C$L0
 10
3.690003
 20
0.253464
 11
3.574453
 21
0.137914
  0
LINE
  8
Layer0$C$L0
 10
3.464335
 20
4.900921E-02
 11
3.413421
 21
-1.904964E-03
  0
LINE
  8
Layer0$C$L0
 10
3.676264
 20
0.260938
 11
3.574035
 21
0.158709
  0
LINE
  8
Layer0$C$L0
 10
3.464335
 20
7.022242E-02
 11
3.392208
 21
-1.904964E-03
  0
LINE
  8
Layer0$C$L0
 10
3.660873
 20
0.266760
 11
3.569251
 21
0.175138
  0
LINE
  8
Layer0$C$L0
 10
3.464335
 20
9.143562E-02
 11
3.370994
 21
-1.904964E-03
  0
LINE
  8
Layer0$C$L0
 10
3.643776
 20
0.270876
 11
3.558313
 21
0.185413
  0
LINE
  8
Layer0$C$L0
 10
3.464335
 20
0.112649
 11
3.349781
 21
-1.904964E-03
  0
LINE
  8
Layer0$C$L0
 10
3.625102
 20
0.273416
 11
3.543499
 21
0.191812
  0
LINE
  8
Layer0$C$L0
 10
3.464335
 20
0.133862
 11
3.328568
 21
-1.904964E-03
  0
LINE
  8
Layer0$C$L0
 10
3.605102
 20
0.274629
 11
3.524476
 21
0.194003
  0
LINE
  8
Layer0$C$L0
 10
3.467026
 20
0.157766
 11
3.308421
 21
-8.388394E-04
  0
LINE
  8
Layer0$C$L0
 10
3.583906
 20
0.274647
 11
3.499248
 21
0.189988
  0
LINE
  8
Layer0$C$L0
 10
3.561294
 20
0.273248
 11
3.308421
 21
2.037436E-02
  0
LINE
  8
Layer0$C$L0
 10
3.536311
 20
0.269478
 11
3.308421
 21
4.158757E-02
  0
LINE
  8
Layer0$C$L0
 10
3.505919
 20
0.260299
 11
3.308421
 21
6.280077E-02
  0
LINE
  8
Layer0$C$L0
 10
3.453634
 20
0.229227
 11
3.308421
 21
8.401398E-02
  0
LINE
  8
Layer0$C$L0
 10
3.453634
 20
0.250440
 11
3.308421
 21
0.105227
  0
LINE
  8
Layer0$C$L0
 10
3.450591
 20
0.268610
 11
3.308421
 21
0.126440
  0
LINE
  8
Layer0$C$L0
 10
3.429377
 20
0.268610
 11
3.308421
 21
0.147654
  0
LINE
  8
Layer0$C$L0
 10
3.408164
 20
0.268610
 11
3.308421
 21
0.168867
  0
LINE
  8
Layer0$C$L0
 10
3.386951
 20
0.268610
 11
3.308421
 21
0.190080
  0
LINE
  8
Layer0$C$L0
 10
3.133156
 20
3.602849E-02
 11
3.095223
 21
-1.904964E-03
  0
LINE
  8
Layer0$C$L0
 10
3.365738
 20
0.268610
 11
3.308421
 21
0.211293
  0
LINE
  8
Layer0$C$L0
 10
3.159372
 20
8.345718E-02
 11
3.074009
 21
-1.904964E-03
  0
LINE
  8
Layer0$C$L0
 10
3.344524
 20
0.268610
 11
3.308421
 21
0.232506
  0
LINE
  8
Layer0$C$L0
 10
3.185587
 20
0.130886
 11
3.052796
 21
-1.904964E-03
  0
LINE
  8
Layer0$C$L0
 10
3.323311
 20
0.268610
 11
3.308421
 21
0.253720
  0
LINE
  8
Layer0$C$L0
 10
3.211803
 20
0.178315
 11
3.031583
 21
-1.904964E-03
  0
LINE
  8
Layer0$C$L0
 10
3.238018
 20
0.225743
 11
3.010370
 21
-1.904964E-03
  0
LINE
  8
Layer0$C$L0
 10
3.259672
 20
0.268610
 11
2.989157
 21
-1.904964E-03
  0
LINE
  8
Layer0$C$L0
 10
3.238458
 20
0.268610
 11
2.971892
 21
2.043703E-03
  0
LINE
  8
Layer0$C$L0
 10
3.046818
 20
9.818280E-02
 11
2.964775
 21
1.613944E-02
  0
LINE
  8
Layer0$C$L0
 10
3.217245
 20
0.268610
 11
3.046821
 21
9.818537E-02
  0
LINE
  8
Layer0$C$L0
 10
3.039726
 20
0.112304
 11
2.957657
 21
3.023519E-02
  0
LINE
  8
Layer0$C$L0
 10
3.196032
 20
0.268610
 11
3.060020
 21
0.132598
  0
LINE
  8
Layer0$C$L0
 10
3.032635
 20
0.126426
 11
2.950540
 21
4.433093E-02
  0
LINE
  8
Layer0$C$L0
 10
3.174819
 20
0.268610
 11
3.073219
 21
0.167010
  0
LINE
  8
Layer0$C$L0
 10
3.025543
 20
0.140547
 11
2.943422
 21
5.842667E-02
  0
LINE
  8
Layer0$C$L0
 10
3.153606
 20
0.268610
 11
3.086419
 21
0.201423
  0
LINE
  8
Layer0$C$L0
 10
3.018451
 20
0.154669
 11
2.936305
 21
7.252241E-02
  0
LINE
  8
Layer0$C$L0
 10
3.132392
 20
0.268610
 11
3.099618
 21
0.235836
  0
LINE
  8
Layer0$C$L0
 10
3.011360
 20
0.168791
 11
2.929187
 21
8.661815E-02
  0
LINE
  8
Layer0$C$L0
 10
3.004268
 20
0.182912
 11
2.922070
 21
0.100714
  0
LINE
  8
Layer0$C$L0
 10
2.825578
 20
2.543543E-02
 11
2.798238
 21
-1.904964E-03
  0
LINE
  8
Layer0$C$L0
 10
2.997177
 20
0.197034
 11
2.914953
 21
0.114810
  0
LINE
  8
Layer0$C$L0
 10
2.845809
 20
6.687976E-02
 11
2.777025
 21
-1.904964E-03
  0
LINE
  8
Layer0$C$L0
 10
2.990085
 20
0.211155
 11
2.907835
 21
0.128905
  0
LINE
  8
Layer0$C$L0
 10
2.866040
 20
0.108324
 11
2.755811
 21
-1.904964E-03
  0
LINE
  8
Layer0$C$L0
 10
2.982993
 20
0.225277
 11
2.900717
 21
0.143001
  0
LINE
  8
Layer0$C$L0
 10
2.886272
 20
0.149768
 11
2.734598
 21
-1.904964E-03
  0
LINE
  8
Layer0$C$L0
 10
2.975902
 20
0.239398
 11
2.893600
 21
0.157097
  0
LINE
  8
Layer0$C$L0
 10
2.968810
 20
0.253520
 11
2.713385
 21
-1.904964E-03
  0
LINE
  8
Layer0$C$L0
 10
2.961718
 20
0.267641
 11
2.692172
 21
-1.904964E-03
  0
LINE
  8
Layer0$C$L0
 10
2.941474
 20
0.268610
 11
2.672283
 21
-5.807794E-04
  0
LINE
  8
Layer0$C$L0
 10
2.920260
 20
0.268610
 11
2.664698
 21
1.304719E-02
  0
LINE
  8
Layer0$C$L0
 10
2.735678
 20
0.105241
 11
2.657112
 21
2.667516E-02
  0
LINE
  8
Layer0$C$L0
 10
2.899047
 20
0.268610
 11
2.747570
 21
0.117133
  0
LINE
  8
Layer0$C$L0
 10
2.729798
 20
0.120574
 11
2.649527
 21
4.030313E-02
  0
LINE
  8
Layer0$C$L0
 10
2.877834
 20
0.268610
 11
2.767516
 21
0.158292
  0
LINE
  8
Layer0$C$L0
 10
2.723917
 20
0.135906
 11
2.641942
 21
5.393109E-02
  0
LINE
  8
Layer0$C$L0
 10
2.856621
 20
0.268610
 11
2.787461
 21
0.199450
  0
LINE
  8
Layer0$C$L0
 10
2.718036
 20
0.151239
 11
2.634357
 21
6.755906E-02
  0
LINE
  8
Layer0$C$L0
 10
2.835408
 20
0.268610
 11
2.807407
 21
0.240609
  0
LINE
  8
Layer0$C$L0
 10
2.712156
 20
0.166571
 11
2.626771
 21
8.118702E-02
  0
LINE
  8
Layer0$C$L0
 10
2.706275
 20
0.181904
 11
2.619186
 21
9.481499E-02
  0
LINE
  8
Layer0$C$L0
 10
2.700394
 20
0.197236
 11
2.611601
 21
0.108443
  0
LINE
  8
Layer0$C$L0
 10
2.488582
 20
6.637473E-03
 11
2.480040
 21
-1.904964E-03
  0
LINE
  8
Layer0$C$L0
 10
2.694514
 20
0.212569
 11
2.604016
 21
0.122071
  0
LINE
  8
Layer0$C$L0
 10
2.480889
 20
2.015780E-02
 11
2.458827
 21
-1.904964E-03
  0
LINE
  8
Layer0$C$L0
 10
2.688633
 20
0.227902
 11
2.596431
 21
0.135699
  0
LINE
  8
Layer0$C$L0
 10
2.476180
 20
3.666124E-02
 11
2.437613
 21
-1.904964E-03
  0
LINE
  8
Layer0$C$L0
 10
2.682753
 20
0.243234
 11
2.588845
 21
0.149327
  0
LINE
  8
Layer0$C$L0
 10
2.474961
 20
5.665585E-02
 11
2.416400
 21
-1.904964E-03
  0
LINE
  8
Layer0$C$L0
 10
2.676872
 20
0.258567
 11
2.581260
 21
0.162955
  0
LINE
  8
Layer0$C$L0
 10
2.474961
 20
7.786906E-02
 11
2.395187
 21
-1.904964E-03
  0
LINE
  8
Layer0$C$L0
 10
2.665702
 20
0.268610
 11
2.573675
 21
0.176583
  0
LINE
  8
Layer0$C$L0
 10
2.474961
 20
9.908226E-02
 11
2.373974
 21
-1.904964E-03
  0
LINE
  8
Layer0$C$L0
 10
2.644489
 20
0.268610
 11
2.566090
 21
0.190211
  0
LINE
  8
Layer0$C$L0
 10
2.474961
 20
0.120295
 11
2.352761
 21
-1.904964E-03
  0
LINE
  8
Layer0$C$L0
 10
2.623276
 20
0.268610
 11
2.558504
 21
0.203839
  0
LINE
  8
Layer0$C$L0
 10
2.474961
 20
0.141509
 11
2.341056
 21
7.603255E-03
  0
LINE
  8
Layer0$C$L0
 10
2.602062
 20
0.268610
 11
2.550919
 21
0.217467
  0
LINE
  8
Layer0$C$L0
 10
2.474961
 20
0.162722
 11
2.334127
 21
2.188834E-02
  0
LINE
  8
Layer0$C$L0
 10
2.580849
 20
0.268610
 11
2.543334
 21
0.231095
  0
LINE
  8
Layer0$C$L0
 10
2.474423
 20
0.183397
 11
2.309371
 21
1.834554E-02
  0
LINE
  8
Layer0$C$L0
 10
2.559636
 20
0.268610
 11
2.535749
 21
0.244723
  0
LINE
  8
Layer0$C$L0
 10
2.470280
 20
0.200467
 11
2.273907
 21
4.094074E-03
  0
LINE
  8
Layer0$C$L0
 10
2.538423
 20
0.268610
 11
2.528163
 21
0.258351
  0
LINE
  8
Layer0$C$L0
 10
2.463715
 20
0.215115
 11
2.246341
 21
-2.258229E-03
  0
LINE
  8
Layer0$C$L0
 10
2.287645
 20
6.025879E-02
 11
2.221704
 21
-5.682634E-03
  0
LINE
  8
Layer0$C$L0
 10
2.455273
 20
0.227887
 11
2.320870
 21
9.348347E-02
  0
LINE
  8
Layer0$C$L0
 10
2.257690
 20
5.151713E-02
 11
2.198733
 21
-7.440345E-03
  0
LINE
  8
Layer0$C$L0
 10
2.444896
 20
0.238723
 11
2.322994
 21
0.116821
  0
LINE
  8
Layer0$C$L0
 10
2.234535
 20
4.957470E-02
 11
2.176969
 21
-7.990595E-03
  0
LINE
  8
Layer0$C$L0
 10
2.432499
 20
0.247540
 11
2.308084
 21
0.123124
  0
LINE
  8
Layer0$C$L0
 10
2.214694
 20
5.094712E-02
 11
2.156170
 21
-7.577075E-03
  0
LINE
  8
Layer0$C$L0
 10
2.418497
 20
0.254750
 11
2.281286
 21
0.117539
  0
LINE
  8
Layer0$C$L0
 10
2.198405
 20
5.587134E-02
 11
2.136378
 21
-6.155835E-03
  0
LINE
  8
Layer0$C$L0
 10
2.320669
 20
0.178136
 11
2.255377
 21
0.112843
  0
LINE
  8
Layer0$C$L0
 10
2.403146
 20
0.260613
 11
2.322865
 21
0.180332
  0
LINE
  8
Layer0$C$L0
 10
2.186731
 20
6.541029E-02
 11
2.117682
 21
-3.638454E-03
  0
LINE
  8
Layer0$C$L0
 10
2.292711
 20
0.171391
 11
2.228851
 21
0.107530
  0
LINE
  8
Layer0$C$L0
 10
2.386526
 20
0.265206
 11
2.318686
 21
0.197366
  0
LINE
  8
Layer0$C$L0
 10
2.184497
 20
8.439031E-02
 11
2.100223
 21
1.162239E-04
  0
LINE
  8
Layer0$C$L0
 10
2.266145
 20
0.166038
 11
2.197304
 21
9.719721E-02
  0
LINE
  8
Layer0$C$L0
 10
2.368665
 20
0.268558
 11
2.307539
 21
0.207432
  0
LINE
  8
Layer0$C$L0
 10
2.240910
 20
0.162016
 11
2.084132
 21
5.238494E-03
  0
LINE
  8
Layer0$C$L0
 10
2.349780
 20
0.270886
 11
2.290735
 21
0.211841
  0
LINE
  8
Layer0$C$L0
 10
2.216072
 20
0.158391
 11
2.069463
 21
1.178205E-02
  0
LINE
  8
Layer0$C$L0
 10
2.330147
 20
0.272466
 11
2.270805
 21
0.213124
  0
LINE
  8
Layer0$C$L0
 10
2.191476
 20
0.155008
 11
2.056265
 21
1.979748E-02
  0
LINE
  8
Layer0$C$L0
 10
2.310033
 20
0.273565
 11
2.248919
 21
0.212451
  0
LINE
  8
Layer0$C$L0
 10
2.166950
 20
0.151696
 11
2.044740
 21
2.948603E-02
  0
LINE
  8
Layer0$C$L0
 10
2.289548
 20
0.274294
 11
2.224107
 21
0.208853
  0
LINE
  8
Layer0$C$L0
 10
2.142162
 20
0.148121
 11
2.035265
 21
4.122386E-02
  0
LINE
  8
Layer0$C$L0
 10
2.268742
 20
0.274700
 11
2.175930
 21
0.181889
  0
LINE
  8
Layer0$C$L0
 10
2.116389
 20
0.143561
 11
2.028838
 21
5.600988E-02
  0
LINE
  8
Layer0$C$L0
 10
2.247606
 20
0.274778
 11
2.156108
 21
0.183280
  0
LINE
  8
Layer0$C$L0
 10
1.953205
 20
1.590154E-03
 11
1.949710
 21
-1.904964E-03
  0
LINE
  8
Layer0$C$L0
 10
2.087851
 20
0.136236
 11
2.027278
 21
7.566302E-02
  0
LINE
  8
Layer0$C$L0
 10
2.226074
 20
0.274459
 11
2.136287
 21
0.184672
  0
LINE
  8
Layer0$C$L0
 10
1.953205
 20
2.280336E-02
 11
1.928497
 21
-1.904964E-03
  0
LINE
  8
Layer0$C$L0
 10
2.203915
 20
0.273514
 11
2.116465
 21
0.186064
  0
LINE
  8
Layer0$C$L0
 10
1.953205
 20
4.401656E-02
 11
1.907283
 21
-1.904964E-03
  0
LINE
  8
Layer0$C$L0
 10
2.180969
 20
0.271781
 11
2.096644
 21
0.187455
  0
LINE
  8
Layer0$C$L0
 10
1.953205
 20
6.522977E-02
 11
1.886070
 21
-1.904964E-03
  0
LINE
  8
Layer0$C$L0
 10
2.157002
 20
0.269027
 11
2.076822
 21
0.188847
  0
LINE
  8
Layer0$C$L0
 10
1.953205
 20
8.644297E-02
 11
1.864857
 21
-1.904964E-03
  0
LINE
  8
Layer0$C$L0
 10
2.131268
 20
0.264506
 11
2.057000
 21
0.190238
  0
LINE
  8
Layer0$C$L0
 10
1.953205
 20
0.107656
 11
1.843644
 21
-1.904964E-03
  0
LINE
  8
Layer0$C$L0
 10
2.100227
 20
0.254678
 11
2.040437
 21
0.194888
  0
LINE
  8
Layer0$C$L0
 10
1.953205
 20
0.128869
 11
1.822430
 21
-1.904964E-03
  0
LINE
  8
Layer0$C$L0
 10
1.953205
 20
0.150083
 11
1.801217
 21
-1.904964E-03
  0
LINE
  8
Layer0$C$L0
 10
1.953231
 20
0.171322
 11
1.796894
 21
1.498498E-02
  0
LINE
  8
Layer0$C$L0
 10
1.951751
 20
0.191055
 11
1.796894
 21
3.619819E-02
  0
LINE
  8
Layer0$C$L0
 10
1.947440
 20
0.207958
 11
1.796894
 21
5.741139E-02
  0
LINE
  8
Layer0$C$L0
 10
1.940897
 20
0.222627
 11
1.796894
 21
7.862460E-02
  0
LINE
  8
Layer0$C$L0
 10
1.932145
 20
0.235089
 11
1.796894
 21
9.983780E-02
  0
LINE
  8
Layer0$C$L0
 10
1.679598
 20
3.754783E-03
 11
1.673938
 21
-1.904964E-03
  0
LINE
  8
Layer0$C$L0
 10
1.921379
 20
0.245536
 11
1.796894
 21
0.121051
  0
LINE
  8
Layer0$C$L0
 10
1.679598
 20
2.496799E-02
 11
1.652725
 21
-1.904964E-03
  0
LINE
  8
Layer0$C$L0
 10
1.908842
 20
0.254213
 11
1.796894
 21
0.142264
  0
LINE
  8
Layer0$C$L0
 10
1.679598
 20
4.618119E-02
 11
1.631512
 21
-1.904964E-03
  0
LINE
  8
Layer0$C$L0
 10
1.894673
 20
0.261256
 11
1.795379
 21
0.161962
  0
LINE
  8
Layer0$C$L0
 10
1.679598
 20
6.739439E-02
 11
1.610299
 21
-1.904964E-03
  0
LINE
  8
Layer0$C$L0
 10
1.879014
 20
0.266810
 11
1.788909
 21
0.176705
  0
LINE
  8
Layer0$C$L0
 10
1.679598
 20
8.860759E-02
 11
1.589085
 21
-1.904964E-03
  0
LINE
  8
Layer0$C$L0
 10
1.861906
 20
0.270915
 11
1.777364
 21
0.186374
  0
LINE
  8
Layer0$C$L0
 10
1.679598
 20
0.109821
 11
1.567872
 21
-1.904964E-03
  0
LINE
  8
Layer0$C$L0
 10
1.843319
 20
0.273542
 11
1.761586
 21
0.191809
  0
LINE
  8
Layer0$C$L0
 10
1.679533
 20
0.130969
 11
1.546659
 21
-1.904964E-03
  0
LINE
  8
Layer0$C$L0
 10
1.823268
 20
0.274704
 11
1.742037
 21
0.193473
  0
LINE
  8
Layer0$C$L0
 10
1.682837
 20
0.155486
 11
1.525446
 21
-1.904964E-03
  0
LINE
  8
Layer0$C$L0
 10
1.801841
 20
0.274490
 11
1.717155
 21
0.189804
  0
LINE
  8
Layer0$C$L0
 10
1.778804
 20
0.272667
 11
1.523945
 21
1.780741E-02
  0
LINE
  8
Layer0$C$L0
 10
1.753045
 20
0.268121
 11
1.523945
 21
3.902061E-02
  0
LINE
  8
Layer0$C$L0
 10
1.721109
 20
0.257398
 11
1.523945
 21
6.023382E-02
  0
LINE
  8
Layer0$C$L0
 10
1.679598
 20
0.237100
 11
1.523945
 21
8.144702E-02
  0
LINE
  8
Layer0$C$L0
 10
1.679598
 20
0.258313
 11
1.523945
 21
0.102660
  0
LINE
  8
Layer0$C$L0
 10
1.679598
 20
0.279526
 11
1.523945
 21
0.123873
  0
LINE
  8
Layer0$C$L0
 10
1.679598
 20
0.300740
 11
1.523945
 21
0.145087
  0
LINE
  8
Layer0$C$L0
 10
1.437023
 20
7.937840E-02
 11
1.387895
 21
3.024982E-02
  0
LINE
  8
Layer0$C$L0
 10
1.679598
 20
0.321953
 11
1.523945
 21
0.166300
  0
LINE
  8
Layer0$C$L0
 10
1.446854
 20
0.110422
 11
1.348406
 21
1.197446E-02
  0
LINE
  8
Layer0$C$L0
 10
1.679598
 20
0.343166
 11
1.523945
 21
0.187513
  0
LINE
  8
Layer0$C$L0
 10
1.446494
 20
0.131275
 11
1.318537
 21
3.318472E-03
  0
LINE
  8
Layer0$C$L0
 10
1.679598
 20
0.364379
 11
1.523945
 21
0.208726
  0
LINE
  8
Layer0$C$L0
 10
1.441996
 20
0.147991
 11
1.292193
 21
-1.812714E-03
  0
LINE
  8
Layer0$C$L0
 10
1.665572
 20
0.371567
 11
1.523945
 21
0.229939
  0
LINE
  8
Layer0$C$L0
 10
1.434809
 20
0.162017
 11
1.267812
 21
-4.980620E-03
  0
LINE
  8
Layer0$C$L0
 10
1.644359
 20
0.371567
 11
1.523945
 21
0.251153
  0
LINE
  8
Layer0$C$L0
 10
1.425646
 20
0.174067
 11
1.244679
 21
-6.900094E-03
  0
LINE
  8
Layer0$C$L0
 10
1.623146
 20
0.371567
 11
1.523945
 21
0.272366
  0
LINE
  8
Layer0$C$L0
 10
1.414840
 20
0.184474
 11
1.222458
 21
-7.907831E-03
  0
LINE
  8
Layer0$C$L0
 10
1.601933
 20
0.371567
 11
1.523945
 21
0.293579
  0
LINE
  8
Layer0$C$L0
 10
1.402624
 20
0.193471
 11
1.200905
 21
-8.247196E-03
  0
LINE
  8
Layer0$C$L0
 10
1.580720
 20
0.371567
 11
1.523945
 21
0.314792
  0
LINE
  8
Layer0$C$L0
 10
1.389199
 20
0.201260
 11
1.179853
 21
-8.086829E-03
  0
LINE
  8
Layer0$C$L0
 10
1.559506
 20
0.371567
 11
1.523945
 21
0.336005
  0
LINE
  8
Layer0$C$L0
 10
1.234736
 20
6.801020E-02
 11
1.159258
 21
-7.468002E-03
  0
LINE
  8
Layer0$C$L0
 10
1.374811
 20
0.208085
 11
1.277726
 21
0.111000
  0
LINE
  8
Layer0$C$L0
 10
1.538293
 20
0.371567
 11
1.523945
 21
0.357219
  0
LINE
  8
Layer0$C$L0
 10
1.210823
 20
6.531045E-02
 11
1.139128
 21
-6.384597E-03
  0
LINE
  8
Layer0$C$L0
 10
1.359614
 20
0.214101
 11
1.268801
 21
0.123288
  0
LINE
  8
Layer0$C$L0
 10
1.425743
 20
0.280229
 11
1.411442
 21
0.265929
  0
LINE
  8
Layer0$C$L0
 10
1.189794
 20
6.549453E-02
 11
1.119517
 21
-4.782636E-03
  0
LINE
  8
Layer0$C$L0
 10
1.343673
 20
0.219374
 11
1.255972
 21
0.131673
  0
LINE
  8
Layer0$C$L0
 10
1.419894
 20
0.295594
 11
1.389371
 21
0.265071
  0
LINE
  8
Layer0$C$L0
 10
1.170818
 20
6.773141E-02
 11
1.100483
 21
-2.603690E-03
  0
LINE
  8
Layer0$C$L0
 10
1.327101
 20
0.224015
 11
1.240507
 21
0.137420
  0
LINE
  8
Layer0$C$L0
 10
1.412285
 20
0.309198
 11
1.367299
 21
0.264213
  0
LINE
  8
Layer0$C$L0
 10
1.153921
 20
7.204732E-02
 11
1.082084
 21
2.109188E-04
  0
LINE
  8
Layer0$C$L0
 10
1.310048
 20
0.228175
 11
1.223707
 21
0.141834
  0
LINE
  8
Layer0$C$L0
 10
1.403096
 20
0.321222
 11
1.345228
 21
0.263355
  0
LINE
  8
Layer0$C$L0
 10
1.139084
 20
7.842416E-02
 11
1.064404
 21
3.744283E-03
  0
LINE
  8
Layer0$C$L0
 10
1.292635
 20
0.231975
 11
1.206097
 21
0.145437
  0
LINE
  8
Layer0$C$L0
 10
1.392442
 20
0.331782
 11
1.323157
 21
0.262496
  0
LINE
  8
Layer0$C$L0
 10
1.126404
 20
8.695740E-02
 11
1.047535
 21
8.088051E-03
  0
LINE
  8
Layer0$C$L0
 10
1.274947
 20
0.235500
 11
1.188007
 21
0.148560
  0
LINE
  8
Layer0$C$L0
 10
1.380366
 20
0.340919
 11
1.301085
 21
0.261638
  0
LINE
  8
Layer0$C$L0
 10
1.116169
 20
9.793525E-02
 11
1.031570
 21
1.333580E-02
  0
LINE
  8
Layer0$C$L0
 10
1.257036
 20
0.238803
 11
1.169704
 21
0.151470
  0
LINE
  8
Layer0$C$L0
 10
1.367002
 20
0.348768
 11
1.279014
 21
0.260780
  0
LINE
  8
Layer0$C$L0
 10
1.108667
 20
0.111647
 11
1.016708
 21
1.968794E-02
  0
LINE
  8
Layer0$C$L0
 10
1.238927
 20
0.241906
 11
1.151439
 21
0.154418
  0
LINE
  8
Layer0$C$L0
 10
1.352457
 20
0.355437
 11
1.263794
 21
0.266774
  0
LINE
  8
Layer0$C$L0
 10
1.103794
 20
0.127986
 11
1.003093
 21
2.728599E-02
  0
LINE
  8
Layer0$C$L0
 10
1.220631
 20
0.244824
 11
1.133367
 21
0.157560
  0
LINE
  8
Layer0$C$L0
 10
1.336837
 20
0.361030
 11
1.256566
 21
0.280759
  0
LINE
  8
Layer0$C$L0
 10
1.082227
 20
0.127633
 11
0.990561
 21
3.596697E-02
  0
LINE
  8
Layer0$C$L0
 10
1.202209
 20
0.247615
 11
1.115609
 21
0.161015
  0
LINE
  8
Layer0$C$L0
 10
1.320276
 20
0.365682
 11
1.246284
 21
0.291690
  0
LINE
  8
Layer0$C$L0
 10
1.060091
 20
0.126710
 11
0.979060
 21
4.567884E-02
  0
LINE
  8
Layer0$C$L0
 10
1.183753
 20
0.250372
 11
1.098218
 21
0.164837
  0
LINE
  8
Layer0$C$L0
 10
1.302859
 20
0.369478
 11
1.232979
 21
0.299598
  0
LINE
  8
Layer0$C$L0
 10
1.037955
 20
0.125787
 11
0.968616
 21
5.644819E-02
  0
LINE
  8
Layer0$C$L0
 10
1.165537
 20
0.253370
 11
1.081214
 21
0.169046
  0
LINE
  8
Layer0$C$L0
 10
1.284657
 20
0.372490
 11
1.216942
 21
0.304774
  0
LINE
  8
Layer0$C$L0
 10
1.015819
 20
0.124865
 11
0.959305
 21
6.835070E-02
  0
LINE
  8
Layer0$C$L0
 10
1.148151
 20
0.257196
 11
1.064651
 21
0.173696
  0
LINE
  8
Layer0$C$L0
 10
1.265738
 20
0.374783
 11
1.198563
 21
0.307608
  0
LINE
  8
Layer0$C$L0
 10
0.993683
 20
0.123942
 11
0.951303
 21
8.156210E-02
  0
LINE
  8
Layer0$C$L0
 10
1.132741
 20
0.263000
 11
1.048608
 21
0.178867
  0
LINE
  8
Layer0$C$L0
 10
1.246157
 20
0.376416
 11
1.178070
 21
0.308329
  0
LINE
  8
Layer0$C$L0
 10
0.971547
 20
0.123019
 11
0.944898
 21
9.636942E-02
  0
LINE
  8
Layer0$C$L0
 10
1.121636
 20
0.273108
 11
1.033211
 21
0.184683
  0
LINE
  8
Layer0$C$L0
 10
1.225957
 20
0.377429
 11
1.154872
 21
0.306344
  0
LINE
  8
Layer0$C$L0
 10
0.949411
 20
0.122096
 11
0.940339
 21
0.113024
  0
LINE
  8
Layer0$C$L0
 10
1.205192
 20
0.377877
 11
1.018608
 21
0.191293
  0
LINE
  8
Layer0$C$L0
 10
1.183925
 20
0.377824
 11
1.004942
 21
0.198840
  0
LINE
  8
Layer0$C$L0
 10
1.162128
 20
0.377240
 11
0.992394
 21
0.207505
  0
LINE
  8
Layer0$C$L0
 10
1.139679
 20
0.376004
 11
0.981232
 21
0.217557
  0
LINE
  8
Layer0$C$L0
 10
1.116341
 20
0.373879
 11
0.971768
 21
0.229306
  0
LINE
  8
Layer0$C$L0
 10
1.091647
 20
0.370398
 11
0.964499
 21
0.243250
  0
LINE
  8
Layer0$C$L0
 10
1.064521
 20
0.364486
 11
0.960357
 21
0.260321
  0
LINE
  8
Layer0$C$L0
 10
1.032298
 20
0.353476
 11
0.961449
 21
0.282626
  0
ENDBLK
  8
Layer0$C$L0
  0
BLOCK
  8
Layer0$C$L0
  2
*X1
 70
     1
 10
0.000000
 20
0.000000
  0
LINE
  8
Layer0$C$L0
 10
3.531619
 20
0.455705
 11
3.543748
 21
0.467833
  0
LINE
  8
Layer0$C$L0
 10
3.543748
 20
0.489047
 11
3.510406
 21
0.455705
  0
LINE
  8
Layer0$C$L0
 10
3.489193
 20
0.455705
 11
3.543748
 21
0.510260
  0
LINE
  8
Layer0$C$L0
 10
3.538759
 20
0.526484
 11
3.467980
 21
0.455705
  0
LINE
  8
Layer0$C$L0
 10
3.446767
 20
0.455705
 11
3.517546
 21
0.526484
  0
LINE
  8
Layer0$C$L0
 10
3.496333
 20
0.526484
 11
3.425553
 21
0.455705
  0
LINE
  8
Layer0$C$L0
 10
3.404340
 20
0.455705
 11
3.475119
 21
0.526484
  0
LINE
  8
Layer0$C$L0
 10
3.453906
 20
0.526484
 11
3.383127
 21
0.455705
  0
LINE
  8
Layer0$C$L0
 10
3.361914
 20
0.455705
 11
3.432693
 21
0.526484
  0
LINE
  8
Layer0$C$L0
 10
3.411480
 20
0.526484
 11
3.340701
 21
0.455705
  0
LINE
  8
Layer0$C$L0
 10
3.319487
 20
0.455705
 11
3.390267
 21
0.526484
  0
LINE
  8
Layer0$C$L0
 10
3.531370
 20
0.667587
 11
3.524912
 21
0.661130
  0
LINE
  8
Layer0$C$L0
 10
3.369053
 20
0.526484
 11
3.298274
 21
0.455705
  0
LINE
  8
Layer0$C$L0
 10
3.531370
 20
0.688801
 11
3.455499
 21
0.612930
  0
LINE
  8
Layer0$C$L0
 10
3.347840
 20
0.526484
 11
3.277061
 21
0.455705
  0
LINE
  8
Layer0$C$L0
 10
3.531370
 20
0.710014
 11
3.386086
 21
0.564730
  0
LINE
  8
Layer0$C$L0
 10
3.526364
 20
0.726221
 11
3.255848
 21
0.455705
  0
LINE
  8
Layer0$C$L0
 10
3.505151
 20
0.726221
 11
3.234635
 21
0.455705
  0
LINE
  8
Layer0$C$L0
 10
3.483938
 20
0.726221
 11
3.213421
 21
0.455705
  0
LINE
  8
Layer0$C$L0
 10
3.462724
 20
0.726221
 11
3.192208
 21
0.455705
  0
LINE
  8
Layer0$C$L0
 10
3.441511
 20
0.726221
 11
3.170995
 21
0.455705
  0
LINE
  8
Layer0$C$L0
 10
3.420298
 20
0.726221
 11
3.149782
 21
0.455705
  0
LINE
  8
Layer0$C$L0
 10
3.305610
 20
0.632746
 11
3.148126
 21
0.475262
  0
LINE
  8
Layer0$C$L0
 10
3.399085
 20
0.726221
 11
3.328305
 21
0.655441
  0
LINE
  8
Layer0$C$L0
 10
3.235513
 20
0.583862
 11
3.148126
 21
0.496475
  0
LINE
  8
Layer0$C$L0
 10
3.377872
 20
0.726221
 11
3.307091
 21
0.655441
  0
LINE
  8
Layer0$C$L0
 10
3.099456
 20
0.469019
 11
3.086142
 21
0.455705
  0
LINE
  8
Layer0$C$L0
 10
3.165416
 20
0.534978
 11
3.148126
 21
0.517689
  0
LINE
  8
Layer0$C$L0
 10
3.356658
 20
0.726221
 11
3.285878
 21
0.655441
  0
LINE
  8
Layer0$C$L0
 10
3.092606
 20
0.483382
 11
3.064929
 21
0.455705
  0
LINE
  8
Layer0$C$L0
 10
3.335445
 20
0.726221
 11
3.264665
 21
0.655441
  0
LINE
  8
Layer0$C$L0
 10
3.089457
 20
0.501446
 11
3.043716
 21
0.455705
  0
LINE
  8
Layer0$C$L0
 10
3.314232
 20
0.726221
 11
3.243452
 21
0.655441
  0
LINE
  8
Layer0$C$L0
 10
3.089039
 20
0.522241
 11
3.022503
 21
0.455705
  0
LINE
  8
Layer0$C$L0
 10
3.293019
 20
0.726221
 11
3.222239
 21
0.655441
  0
LINE
  8
Layer0$C$L0
 10
3.089039
 20
0.543455
 11
3.001289
 21
0.455705
  0
LINE
  8
Layer0$C$L0
 10
3.271805
 20
0.726221
 11
3.201025
 21
0.655441
  0
LINE
  8
Layer0$C$L0
 10
3.089039
 20
0.564668
 11
2.980076
 21
0.455705
  0
LINE
  8
Layer0$C$L0
 10
3.250592
 20
0.726221
 11
3.179812
 21
0.655441
  0
LINE
  8
Layer0$C$L0
 10
3.089039
 20
0.585881
 11
2.962459
 21
0.459301
  0
LINE
  8
Layer0$C$L0
 10
3.229379
 20
0.726221
 11
3.163189
 21
0.660031
  0
LINE
  8
Layer0$C$L0
 10
3.089039
 20
0.607094
 11
2.953958
 21
0.472013
  0
LINE
  8
Layer0$C$L0
 10
3.208166
 20
0.726221
 11
3.163189
 21
0.681244
  0
LINE
  8
Layer0$C$L0
 10
3.089039
 20
0.628307
 11
2.949028
 21
0.488296
  0
LINE
  8
Layer0$C$L0
 10
3.186953
 20
0.726221
 11
3.163189
 21
0.702457
  0
LINE
  8
Layer0$C$L0
 10
3.087374
 20
0.647856
 11
2.905856
 21
0.466338
  0
LINE
  8
Layer0$C$L0
 10
3.165739
 20
0.726221
 11
3.163189
 21
0.723671
  0
LINE
  8
Layer0$C$L0
 10
3.082223
 20
0.663918
 11
2.875689
 21
0.457384
  0
LINE
  8
Layer0$C$L0
 10
3.075031
 20
0.677939
 11
2.850067
 21
0.452975
  0
LINE
  8
Layer0$C$L0
 10
2.887318
 20
0.511440
 11
2.826504
 21
0.450625
  0
LINE
  8
Layer0$C$L0
 10
3.065956
 20
0.690077
 11
2.940107
 21
0.564228
  0
LINE
  8
Layer0$C$L0
 10
2.862134
 20
0.507468
 11
2.804351
 21
0.449685
  0
LINE
  8
Layer0$C$L0
 10
3.054860
 20
0.700195
 11
2.938343
 21
0.583678
  0
LINE
  8
Layer0$C$L0
 10
2.841146
 20
0.507693
 11
2.783260
 21
0.449808
  0
LINE
  8
Layer0$C$L0
 10
3.041848
 20
0.708395
 11
2.910912
 21
0.577459
  0
LINE
  8
Layer0$C$L0
 10
2.823569
 20
0.511330
 11
2.763187
 21
0.450948
  0
LINE
  8
Layer0$C$L0
 10
3.027342
 20
0.715103
 11
2.884577
 21
0.572337
  0
LINE
  8
Layer0$C$L0
 10
2.810289
 20
0.519263
 11
2.744230
 21
0.453204
  0
LINE
  8
Layer0$C$L0
 10
2.922885
 20
0.631860
 11
2.858382
 21
0.567356
  0
LINE
  8
Layer0$C$L0
 10
3.011510
 20
0.720484
 11
2.942942
 21
0.651916
  0
LINE
  8
Layer0$C$L0
 10
2.803451
 20
0.533638
 11
2.726509
 21
0.456697
  0
LINE
  8
Layer0$C$L0
 10
2.895519
 20
0.625706
 11
2.829888
 21
0.560075
  0
LINE
  8
Layer0$C$L0
 10
2.994370
 20
0.724557
 11
2.934641
 21
0.664828
  0
LINE
  8
Layer0$C$L0
 10
2.869720
 20
0.621120
 11
2.710175
 21
0.461575
  0
LINE
  8
Layer0$C$L0
 10
2.976031
 20
0.727431
 11
2.920654
 21
0.672054
  0
LINE
  8
Layer0$C$L0
 10
2.844688
 20
0.617302
 11
2.695292
 21
0.467906
  0
LINE
  8
Layer0$C$L0
 10
2.956773
 20
0.729386
 11
2.902567
 21
0.675181
  0
LINE
  8
Layer0$C$L0
 10
2.819920
 20
0.613747
 11
2.681897
 21
0.475724
  0
LINE
  8
Layer0$C$L0
 10
2.936890
 20
0.730716
 11
2.881878
 21
0.675705
  0
LINE
  8
Layer0$C$L0
 10
2.795320
 20
0.610360
 11
2.670150
 21
0.485190
  0
LINE
  8
Layer0$C$L0
 10
2.916583
 20
0.731623
 11
2.859189
 21
0.674229
  0
LINE
  8
Layer0$C$L0
 10
2.770564
 20
0.606817
 11
2.660382
 21
0.496635
  0
LINE
  8
Layer0$C$L0
 10
2.895925
 20
0.732178
 11
2.831669
 21
0.667922
  0
LINE
  8
Layer0$C$L0
 10
2.745062
 20
0.602528
 11
2.653432
 21
0.510898
  0
LINE
  8
Layer0$C$L0
 10
2.874931
 20
0.732397
 11
2.787682
 21
0.645149
  0
LINE
  8
Layer0$C$L0
 10
2.717311
 20
0.595991
 11
2.650939
 21
0.529618
  0
LINE
  8
Layer0$C$L0
 10
2.853569
 20
0.732248
 11
2.767890
 21
0.646569
  0
LINE
  8
Layer0$C$L0
 10
2.679499
 20
0.579392
 11
2.660540
 21
0.560433
  0
LINE
  8
Layer0$C$L0
 10
2.831649
 20
0.731542
 11
2.748097
 21
0.647990
  0
LINE
  8
Layer0$C$L0
 10
2.808950
 20
0.730056
 11
2.728305
 21
0.649411
  0
LINE
  8
Layer0$C$L0
 10
2.785289
 20
0.727608
 11
2.708512
 21
0.650831
  0
LINE
  8
Layer0$C$L0
 10
2.760115
 20
0.723648
 11
2.688720
 21
0.652252
  0
LINE
  8
Layer0$C$L0
 10
2.730878
 20
0.715624
 11
2.668927
 21
0.653673
  0
LINE
  8
Layer0$C$L0
 10
2.470850
 20
0.476809
 11
2.449746
 21
0.455705
  0
LINE
  8
Layer0$C$L0
 10
2.470850
 20
0.498022
 11
2.428533
 21
0.455705
  0
LINE
  8
Layer0$C$L0
 10
2.470850
 20
0.519235
 11
2.407320
 21
0.455705
  0
LINE
  8
Layer0$C$L0
 10
2.470850
 20
0.540448
 11
2.386106
 21
0.455705
  0
LINE
  8
Layer0$C$L0
 10
2.598834
 20
0.668433
 11
2.576546
 21
0.646144
  0
LINE
  8
Layer0$C$L0
 10
2.470967
 20
0.561779
 11
2.364893
 21
0.455705
  0
LINE
  8
Layer0$C$L0
 10
2.628161
 20
0.718973
 11
2.559188
 21
0.649999
  0
LINE
  8
Layer0$C$L0
 10
2.473558
 20
0.585583
 11
2.343680
 21
0.455705
  0
LINE
  8
Layer0$C$L0
 10
2.612037
 20
0.724062
 11
2.539853
 21
0.651878
  0
LINE
  8
Layer0$C$L0
 10
2.481300
 20
0.614538
 11
2.322467
 21
0.455705
  0
LINE
  8
Layer0$C$L0
 10
2.594993
 20
0.728231
 11
2.514487
 21
0.647725
  0
LINE
  8
Layer0$C$L0
 10
2.576754
 20
0.731206
 11
2.317961
 21
0.472412
  0
LINE
  8
Layer0$C$L0
 10
2.556730
 20
0.732394
 11
2.317961
 21
0.493625
  0
LINE
  8
Layer0$C$L0
 10
2.533939
 20
0.730816
 11
2.317961
 21
0.514839
  0
LINE
  8
Layer0$C$L0
 10
2.503962
 20
0.722053
 11
2.317961
 21
0.536052
  0
LINE
  8
Layer0$C$L0
 10
2.460386
 20
0.699690
 11
2.317961
 21
0.557265
  0
LINE
  8
Layer0$C$L0
 10
2.460386
 20
0.720903
 11
2.317961
 21
0.578478
  0
LINE
  8
Layer0$C$L0
 10
2.444490
 20
0.726221
 11
2.317961
 21
0.599692
  0
LINE
  8
Layer0$C$L0
 10
2.423277
 20
0.726221
 11
2.317961
 21
0.620905
  0
LINE
  8
Layer0$C$L0
 10
2.402064
 20
0.726221
 11
2.317961
 21
0.642118
  0
LINE
  8
Layer0$C$L0
 10
2.380851
 20
0.726221
 11
2.317961
 21
0.663331
  0
LINE
  8
Layer0$C$L0
 10
2.098712
 20
0.465295
 11
2.089122
 21
0.455705
  0
LINE
  8
Layer0$C$L0
 10
2.359638
 20
0.726221
 11
2.317961
 21
0.684544
  0
LINE
  8
Layer0$C$L0
 10
2.098712
 20
0.486509
 11
2.067908
 21
0.455705
  0
LINE
  8
Layer0$C$L0
 10
2.338424
 20
0.726221
 11
2.317961
 21
0.705757
  0
LINE
  8
Layer0$C$L0
 10
2.098712
 20
0.507722
 11
2.046695
 21
0.455705
  0
LINE
  8
Layer0$C$L0
 10
2.098712
 20
0.528935
 11
2.025482
 21
0.455705
  0
LINE
  8
Layer0$C$L0
 10
2.098619
 20
0.550056
 11
2.004269
 21
0.455705
  0
LINE
  8
Layer0$C$L0
 10
2.243726
 20
0.695162
 11
2.196607
 21
0.648043
  0
LINE
  8
Layer0$C$L0
 10
2.099643
 20
0.572292
 11
1.983056
 21
0.455705
  0
LINE
  8
Layer0$C$L0
 10
2.248762
 20
0.721412
 11
2.178595
 21
0.651244
  0
LINE
  8
Layer0$C$L0
 10
2.103786
 20
0.597649
 11
1.961842
 21
0.455705
  0
LINE
  8
Layer0$C$L0
 10
2.232226
 20
0.726088
 11
2.157379
 21
0.651241
  0
LINE
  8
Layer0$C$L0
 10
2.214695
 20
0.729771
 11
1.945819
 21
0.460895
  0
LINE
  8
Layer0$C$L0
 10
2.195721
 20
0.732010
 11
1.945819
 21
0.482108
  0
LINE
  8
Layer0$C$L0
 10
2.174619
 20
0.732121
 11
1.945819
 21
0.503321
  0
LINE
  8
Layer0$C$L0
 10
2.149714
 20
0.728430
 11
1.945819
 21
0.524534
  0
LINE
  8
Layer0$C$L0
 10
2.088248
 20
0.688177
 11
1.945819
 21
0.545747
  0
LINE
  8
Layer0$C$L0
 10
2.088248
 20
0.709390
 11
1.945819
 21
0.566961
  0
LINE
  8
Layer0$C$L0
 10
2.083866
 20
0.726221
 11
1.945819
 21
0.588174
  0
LINE
  8
Layer0$C$L0
 10
1.853005
 20
0.516573
 11
1.825704
 21
0.489272
  0
LINE
  8
Layer0$C$L0
 10
2.062653
 20
0.726221
 11
1.945819
 21
0.609387
  0
LINE
  8
Layer0$C$L0
 10
1.833042
 20
0.517823
 11
1.782293
 21
0.467074
  0
LINE
  8
Layer0$C$L0
 10
2.041440
 20
0.726221
 11
1.945819
 21
0.630600
  0
LINE
  8
Layer0$C$L0
 10
1.813078
 20
0.519073
 11
1.752915
 21
0.458910
  0
LINE
  8
Layer0$C$L0
 10
1.874379
 20
0.580374
 11
1.859273
 21
0.565268
  0
LINE
  8
Layer0$C$L0
 10
2.020226
 20
0.726221
 11
1.945819
 21
0.651814
  0
LINE
  8
Layer0$C$L0
 10
1.793115
 20
0.520323
 11
1.727309
 21
0.454517
  0
LINE
  8
Layer0$C$L0
 10
1.873090
 20
0.600298
 11
1.838060
 21
0.565268
  0
LINE
  8
Layer0$C$L0
 10
1.999013
 20
0.726221
 11
1.945819
 21
0.673027
  0
LINE
  8
Layer0$C$L0
 10
1.773152
 20
0.521573
 11
1.703509
 21
0.451930
  0
LINE
  8
Layer0$C$L0
 10
1.869829
 20
0.618250
 11
1.816847
 21
0.565268
  0
LINE
  8
Layer0$C$L0
 10
1.977800
 20
0.726221
 11
1.945819
 21
0.694240
  0
LINE
  8
Layer0$C$L0
 10
1.753189
 20
0.522823
 11
1.680817
 21
0.450451
  0
LINE
  8
Layer0$C$L0
 10
1.864877
 20
0.634511
 11
1.795634
 21
0.565268
  0
LINE
  8
Layer0$C$L0
 10
1.956587
 20
0.726221
 11
1.945819
 21
0.715453
  0
LINE
  8
Layer0$C$L0
 10
1.733226
 20
0.524073
 11
1.658899
 21
0.449747
  0
LINE
  8
Layer0$C$L0
 10
1.858206
 20
0.649054
 11
1.774421
 21
0.565268
  0
LINE
  8
Layer0$C$L0
 10
1.713263
 20
0.525323
 11
1.637582
 21
0.449643
  0
LINE
  8
Layer0$C$L0
 10
1.849960
 20
0.662020
 11
1.753207
 21
0.565268
  0
LINE
  8
Layer0$C$L0
 10
1.675422
 20
0.508695
 11
1.616810
 21
0.450084
  0
LINE
  8
Layer0$C$L0
 10
1.840297
 20
0.673571
 11
1.731994
 21
0.565268
  0
LINE
  8
Layer0$C$L0
 10
1.651071
 20
0.505558
 11
1.596657
 21
0.451144
  0
LINE
  8
Layer0$C$L0
 10
1.829367
 20
0.683854
 11
1.710781
 21
0.565268
  0
LINE
  8
Layer0$C$L0
 10
1.630711
 20
0.506412
 11
1.577200
 21
0.452900
  0
LINE
  8
Layer0$C$L0
 10
1.817292
 20
0.692992
 11
1.689568
 21
0.565268
  0
LINE
  8
Layer0$C$L0
 10
1.613162
 20
0.510075
 11
1.558514
 21
0.455427
  0
LINE
  8
Layer0$C$L0
 10
1.713004
 20
0.609917
 11
1.668355
 21
0.565268
  0
LINE
  8
Layer0$C$L0
 10
1.804154
 20
0.701067
 11
1.723976
 21
0.620890
  0
LINE
  8
Layer0$C$L0
 10
1.598088
 20
0.516215
 11
1.540710
 21
0.458837
  0
LINE
  8
Layer0$C$L0
 10
1.691790
 20
0.609917
 11
1.647141
 21
0.565268
  0
LINE
  8
Layer0$C$L0
 10
1.790006
 20
0.708133
 11
1.718802
 21
0.636928
  0
LINE
  8
Layer0$C$L0
 10
1.585348
 20
0.524688
 11
1.523907
 21
0.463247
  0
LINE
  8
Layer0$C$L0
 10
1.670577
 20
0.609917
 11
1.625928
 21
0.565268
  0
LINE
  8
Layer0$C$L0
 10
1.774879
 20
0.714219
 11
1.711093
 21
0.650433
  0
LINE
  8
Layer0$C$L0
 10
1.575164
 20
0.535717
 11
1.508211
 21
0.468764
  0
LINE
  8
Layer0$C$L0
 10
1.649364
 20
0.609917
 11
1.604715
 21
0.565268
  0
LINE
  8
Layer0$C$L0
 10
1.758788
 20
0.719341
 11
1.700377
 21
0.660930
  0
LINE
  8
Layer0$C$L0
 10
1.568069
 20
0.549836
 11
1.493604
 21
0.475370
  0
LINE
  8
Layer0$C$L0
 10
1.628151
 20
0.609917
 11
1.583502
 21
0.565268
  0
LINE
  8
Layer0$C$L0
 10
1.741739
 20
0.723505
 11
1.686808
 21
0.668574
  0
LINE
  8
Layer0$C$L0
 10
1.606938
 20
0.609917
 11
1.480030
 21
0.483009
  0
LINE
  8
Layer0$C$L0
 10
1.723770
 20
0.726749
 11
1.670594
 21
0.673574
  0
LINE
  8
Layer0$C$L0
 10
1.585724
 20
0.609917
 11
1.467445
 21
0.491637
  0
LINE
  8
Layer0$C$L0
 10
1.704983
 20
0.729176
 11
1.651686
 21
0.675878
  0
LINE
  8
Layer0$C$L0
 10
1.564750
 20
0.610156
 11
1.455834
 21
0.501240
  0
LINE
  8
Layer0$C$L0
 10
1.685480
 20
0.730886
 11
1.629631
 21
0.675037
  0
LINE
  8
Layer0$C$L0
 10
1.571266
 20
0.637885
 11
1.445233
 21
0.511852
  0
LINE
  8
Layer0$C$L0
 10
1.665333
 20
0.731952
 11
1.599064
 21
0.665684
  0
LINE
  8
Layer0$C$L0
 10
1.644556
 20
0.732388
 11
1.435729
 21
0.523561
  0
LINE
  8
Layer0$C$L0
 10
1.623096
 20
0.732141
 11
1.427558
 21
0.536603
  0
LINE
  8
Layer0$C$L0
 10
1.600720
 20
0.730979
 11
1.421062
 21
0.551320
  0
LINE
  8
Layer0$C$L0
 10
1.576991
 20
0.728462
 11
1.416568
 21
0.568040
  0
LINE
  8
Layer0$C$L0
 10
1.551254
 20
0.723939
 11
1.414582
 21
0.587267
  0
LINE
  8
Layer0$C$L0
 10
1.522075
 20
0.715974
 11
1.416035
 21
0.609933
  0
LINE
  8
Layer0$C$L0
 10
1.484007
 20
0.699119
 11
1.425723
 21
0.640834
  0
LINE
  8
Layer0$C$L0
 10
1.342311
 20
0.621062
 11
1.329560
 21
0.608311
  0
LINE
  8
Layer0$C$L0
 10
1.342311
 20
0.642275
 11
1.308347
 21
0.608311
  0
LINE
  8
Layer0$C$L0
 10
1.342311
 20
0.663488
 11
1.287134
 21
0.608311
  0
LINE
  8
Layer0$C$L0
 10
1.129949
 20
0.472340
 11
1.113314
 21
0.455705
  0
LINE
  8
Layer0$C$L0
 10
1.341310
 20
0.683701
 11
1.265920
 21
0.608311
  0
LINE
  8
Layer0$C$L0
 10
1.129949
 20
0.493553
 11
1.092101
 21
0.455705
  0
LINE
  8
Layer0$C$L0
 10
1.320097
 20
0.683701
 11
1.244707
 21
0.608311
  0
LINE
  8
Layer0$C$L0
 10
1.129949
 20
0.514766
 11
1.070888
 21
0.455705
  0
LINE
  8
Layer0$C$L0
 10
1.298884
 20
0.683701
 11
1.223494
 21
0.608311
  0
LINE
  8
Layer0$C$L0
 10
1.378677
 20
0.763494
 11
1.364100
 21
0.748917
  0
LINE
  8
Layer0$C$L0
 10
1.129949
 20
0.535979
 11
1.049675
 21
0.455705
  0
LINE
  8
Layer0$C$L0
 10
1.277671
 20
0.683701
 11
1.202281
 21
0.608311
  0
LINE
  8
Layer0$C$L0
 10
1.378677
 20
0.784707
 11
1.342887
 21
0.748917
  0
LINE
  8
Layer0$C$L0
 10
1.129949
 20
0.557192
 11
1.028461
 21
0.455705
  0
LINE
  8
Layer0$C$L0
 10
1.256457
 20
0.683701
 11
1.181068
 21
0.608311
  0
LINE
  8
Layer0$C$L0
 10
1.378677
 20
0.805920
 11
1.321674
 21
0.748917
  0
LINE
  8
Layer0$C$L0
 10
1.129949
 20
0.578406
 11
1.007248
 21
0.455705
  0
LINE
  8
Layer0$C$L0
 10
1.235244
 20
0.683701
 11
1.159854
 21
0.608311
  0
LINE
  8
Layer0$C$L0
 10
1.378677
 20
0.827134
 11
1.300460
 21
0.748917
  0
LINE
  8
Layer0$C$L0
 10
1.129949
 20
0.599619
 11
0.986035
 21
0.455705
  0
LINE
  8
Layer0$C$L0
 10
1.214031
 20
0.683701
 11
1.138641
 21
0.608311
  0
LINE
  8
Layer0$C$L0
 10
1.359507
 20
0.829177
 11
1.279247
 21
0.748917
  0
LINE
  8
Layer0$C$L0
 10
1.192818
 20
0.683701
 11
0.964822
 21
0.455705
  0
LINE
  8
Layer0$C$L0
 10
1.338294
 20
0.829177
 11
1.258034
 21
0.748917
  0
LINE
  8
Layer0$C$L0
 10
1.171605
 20
0.683701
 11
0.959827
 21
0.471923
  0
LINE
  8
Layer0$C$L0
 10
1.317081
 20
0.829177
 11
1.236821
 21
0.748917
  0
LINE
  8
Layer0$C$L0
 10
1.150391
 20
0.683701
 11
0.959827
 21
0.493136
  0
LINE
  8
Layer0$C$L0
 10
1.295867
 20
0.829177
 11
1.215607
 21
0.748917
  0
LINE
  8
Layer0$C$L0
 10
1.129949
 20
0.684472
 11
0.959827
 21
0.514350
  0
LINE
  8
Layer0$C$L0
 10
1.274654
 20
0.829177
 11
1.194394
 21
0.748917
  0
LINE
  8
Layer0$C$L0
 10
1.129949
 20
0.705685
 11
0.959827
 21
0.535563
  0
LINE
  8
Layer0$C$L0
 10
1.253441
 20
0.829177
 11
1.173181
 21
0.748917
  0
LINE
  8
Layer0$C$L0
 10
1.129949
 20
0.726898
 11
0.959827
 21
0.556776
  0
LINE
  8
Layer0$C$L0
 10
1.232228
 20
0.829177
 11
1.151968
 21
0.748917
  0
LINE
  8
Layer0$C$L0
 10
1.129949
 20
0.748111
 11
0.959827
 21
0.577989
  0
LINE
  8
Layer0$C$L0
 10
1.211015
 20
0.829177
 11
1.130755
 21
0.748917
  0
LINE
  8
Layer0$C$L0
 10
1.189801
 20
0.829177
 11
0.959827
 21
0.599203
  0
LINE
  8
Layer0$C$L0
 10
1.168588
 20
0.829177
 11
0.959827
 21
0.620416
  0
LINE
  8
Layer0$C$L0
 10
1.147375
 20
0.829177
 11
0.959827
 21
0.641629
  0
LINE
  8
Layer0$C$L0
 10
1.126162
 20
0.829177
 11
0.959827
 21
0.662842
  0
LINE
  8
Layer0$C$L0
 10
1.104949
 20
0.829177
 11
0.959827
 21
0.684055
  0
LINE
  8
Layer0$C$L0
 10
1.083735
 20
0.829177
 11
0.959827
 21
0.705269
  0
LINE
  8
Layer0$C$L0
 10
1.062522
 20
0.829177
 11
0.959827
 21
0.726482
  0
LINE
  8
Layer0$C$L0
 10
1.041309
 20
0.829177
 11
0.959827
 21
0.747695
  0
LINE
  8
Layer0$C$L0
 10
1.020096
 20
0.829177
 11
0.959827
 21
0.768908
  0
LINE
  8
Layer0$C$L0
 10
0.998883
 20
0.829177
 11
0.959827
 21
0.790121
  0
LINE
  8
Layer0$C$L0
 10
0.977669
 20
0.829177
 11
0.959827
 21
0.811335
  0
ENDBLK
  8
Layer0$C$L0
  0
BLOCK
  8
Layer0$C$L0
  2
*X2
 70
     1
 10
0.000000
 20
0.000000
  0
LINE
  8
Layer0$C$L0
 10
4.881419
 20
0.440788
 11
4.891315
 21
0.450684
  0
LINE
  8
Layer0$C$L0
 10
4.891315
 20
0.464827
 11
4.867276
 21
0.440788
  0
LINE
  8
Layer0$C$L0
 10
4.853134
 20
0.440788
 11
4.891315
 21
0.478969
  0
LINE
  8
Layer0$C$L0
 10
4.891315
 20
0.493111
 11
4.838992
 21
0.440788
  0
LINE
  8
Layer0$C$L0
 10
4.824850
 20
0.440788
 11
4.891315
 21
0.507253
  0
LINE
  8
Layer0$C$L0
 10
4.891315
 20
0.521395
 11
4.810708
 21
0.440788
  0
LINE
  8
Layer0$C$L0
 10
4.796566
 20
0.440788
 11
4.891315
 21
0.535537
  0
LINE
  8
Layer0$C$L0
 10
4.891315
 20
0.549679
 11
4.782423
 21
0.440788
  0
LINE
  8
Layer0$C$L0
 10
4.768281
 20
0.440788
 11
4.891315
 21
0.563821
  0
LINE
  8
Layer0$C$L0
 10
4.891315
 20
0.577964
 11
4.754139
 21
0.440788
  0
LINE
  8
Layer0$C$L0
 10
4.739997
 20
0.440788
 11
4.891315
 21
0.592106
  0
LINE
  8
Layer0$C$L0
 10
4.891315
 20
0.606248
 11
4.725855
 21
0.440788
  0
LINE
  8
Layer0$C$L0
 10
4.711713
 20
0.440788
 11
4.891315
 21
0.620390
  0
LINE
  8
Layer0$C$L0
 10
4.891315
 20
0.634532
 11
4.697571
 21
0.440788
  0
LINE
  8
Layer0$C$L0
 10
4.683429
 20
0.440788
 11
4.891315
 21
0.648674
  0
LINE
  8
Layer0$C$L0
 10
4.891315
 20
0.662816
 11
4.669286
 21
0.440788
  0
LINE
  8
Layer0$C$L0
 10
4.655144
 20
0.440788
 11
4.891315
 21
0.676959
  0
LINE
  8
Layer0$C$L0
 10
4.891315
 20
0.691101
 11
4.641002
 21
0.440788
  0
LINE
  8
Layer0$C$L0
 10
4.626860
 20
0.440788
 11
4.891315
 21
0.705243
  0
LINE
  8
Layer0$C$L0
 10
4.891315
 20
0.719385
 11
4.612718
 21
0.440788
  0
LINE
  8
Layer0$C$L0
 10
4.598576
 20
0.440788
 11
4.885052
 21
0.727264
  0
LINE
  8
Layer0$C$L0
 10
4.870910
 20
0.727264
 11
4.584434
 21
0.440788
  0
LINE
  8
Layer0$C$L0
 10
4.570292
 20
0.440788
 11
4.856768
 21
0.727264
  0
LINE
  8
Layer0$C$L0
 10
4.842626
 20
0.727264
 11
4.556149
 21
0.440788
  0
LINE
  8
Layer0$C$L0
 10
4.542007
 20
0.440788
 11
4.828484
 21
0.727264
  0
LINE
  8
Layer0$C$L0
 10
4.814341
 20
0.727264
 11
4.527865
 21
0.440788
  0
LINE
  8
Layer0$C$L0
 10
4.513723
 20
0.440788
 11
4.800199
 21
0.727264
  0
LINE
  8
Layer0$C$L0
 10
4.786057
 20
0.727264
 11
4.499581
 21
0.440788
  0
LINE
  8
Layer0$C$L0
 10
4.485439
 20
0.440788
 11
4.771915
 21
0.727264
  0
LINE
  8
Layer0$C$L0
 10
4.757773
 20
0.727264
 11
4.471297
 21
0.440788
  0
LINE
  8
Layer0$C$L0
 10
4.457154
 20
0.440788
 11
4.743630
 21
0.727264
  0
LINE
  8
Layer0$C$L0
 10
4.729488
 20
0.727264
 11
4.443012
 21
0.440788
  0
LINE
  8
Layer0$C$L0
 10
4.428870
 20
0.440788
 11
4.715346
 21
0.727264
  0
LINE
  8
Layer0$C$L0
 10
4.701204
 20
0.727264
 11
4.414728
 21
0.440788
  0
LINE
  8
Layer0$C$L0
 10
4.400586
 20
0.440788
 11
4.687062
 21
0.727264
  0
LINE
  8
Layer0$C$L0
 10
4.672920
 20
0.727264
 11
4.386444
 21
0.440788
  0
LINE
  8
Layer0$C$L0
 10
4.372302
 20
0.440788
 11
4.658778
 21
0.727264
  0
LINE
  8
Layer0$C$L0
 10
4.644636
 20
0.727264
 11
4.358160
 21
0.440788
  0
LINE
  8
Layer0$C$L0
 10
4.344018
 20
0.440788
 11
4.630494
 21
0.727264
  0
LINE
  8
Layer0$C$L0
 10
4.616351
 20
0.727264
 11
4.329875
 21
0.440788
  0
LINE
  8
Layer0$C$L0
 10
4.315733
 20
0.440788
 11
4.602209
 21
0.727264
  0
LINE
  8
Layer0$C$L0
 10
4.588067
 20
0.727264
 11
4.301591
 21
0.440788
  0
LINE
  8
Layer0$C$L0
 10
4.287449
 20
0.440788
 11
4.573925
 21
0.727264
  0
LINE
  8
Layer0$C$L0
 10
4.559783
 20
0.727264
 11
4.273307
 21
0.440788
  0
LINE
  8
Layer0$C$L0
 10
4.259164
 20
0.440788
 11
4.545640
 21
0.727264
  0
LINE
  8
Layer0$C$L0
 10
4.531498
 20
0.727264
 11
4.245022
 21
0.440788
  0
LINE
  8
Layer0$C$L0
 10
4.230880
 20
0.440788
 11
4.517356
 21
0.727264
  0
LINE
  8
Layer0$C$L0
 10
4.503214
 20
0.727264
 11
4.216738
 21
0.440788
  0
LINE
  8
Layer0$C$L0
 10
4.202596
 20
0.440788
 11
4.489072
 21
0.727264
  0
LINE
  8
Layer0$C$L0
 10
4.474930
 20
0.727264
 11
4.188454
 21
0.440788
  0
LINE
  8
Layer0$C$L0
 10
4.174312
 20
0.440788
 11
4.460788
 21
0.727264
  0
LINE
  8
Layer0$C$L0
 10
4.446646
 20
0.727264
 11
4.160170
 21
0.440788
  0
LINE
  8
Layer0$C$L0
 10
4.146028
 20
0.440788
 11
4.432504
 21
0.727264
  0
LINE
  8
Layer0$C$L0
 10
4.418362
 20
0.727264
 11
4.131886
 21
0.440788
  0
LINE
  8
Layer0$C$L0
 10
4.117743
 20
0.440788
 11
4.404219
 21
0.727264
  0
LINE
  8
Layer0$C$L0
 10
4.390077
 20
0.727264
 11
4.103601
 21
0.440788
  0
LINE
  8
Layer0$C$L0
 10
4.089459
 20
0.440788
 11
4.375935
 21
0.727264
  0
LINE
  8
Layer0$C$L0
 10
4.361793
 20
0.727264
 11
4.075317
 21
0.440788
  0
LINE
  8
Layer0$C$L0
 10
4.061174
 20
0.440788
 11
4.347651
 21
0.727264
  0
LINE
  8
Layer0$C$L0
 10
4.333508
 20
0.727264
 11
4.047032
 21
0.440788
  0
LINE
  8
Layer0$C$L0
 10
4.032890
 20
0.440788
 11
4.319366
 21
0.727264
  0
LINE
  8
Layer0$C$L0
 10
4.305224
 20
0.727264
 11
4.018748
 21
0.440788
  0
LINE
  8
Layer0$C$L0
 10
4.004606
 20
0.440788
 11
4.291082
 21
0.727264
  0
LINE
  8
Layer0$C$L0
 10
4.276940
 20
0.727264
 11
3.990464
 21
0.440788
  0
LINE
  8
Layer0$C$L0
 10
3.976322
 20
0.440788
 11
4.262798
 21
0.727264
  0
LINE
  8
Layer0$C$L0
 10
4.248656
 20
0.727264
 11
3.962180
 21
0.440788
  0
LINE
  8
Layer0$C$L0
 10
3.948038
 20
0.440788
 11
4.234514
 21
0.727264
  0
LINE
  8
Layer0$C$L0
 10
4.220372
 20
0.727264
 11
3.933895
 21
0.440788
  0
LINE
  8
Layer0$C$L0
 10
3.919753
 20
0.440788
 11
4.206229
 21
0.727264
  0
LINE
  8
Layer0$C$L0
 10
4.192087
 20
0.727264
 11
3.905611
 21
0.440788
  0
LINE
  8
Layer0$C$L0
 10
3.891469
 20
0.440788
 11
4.177945
 21
0.727264
  0
LINE
  8
Layer0$C$L0
 10
4.163803
 20
0.727264
 11
3.877327
 21
0.440788
  0
LINE
  8
Layer0$C$L0
 10
3.863185
 20
0.440788
 11
4.149661
 21
0.727264
  0
LINE
  8
Layer0$C$L0
 10
4.135519
 20
0.727264
 11
3.849043
 21
0.440788
  0
LINE
  8
Layer0$C$L0
 10
3.834900
 20
0.440788
 11
4.121377
 21
0.727264
  0
LINE
  8
Layer0$C$L0
 10
4.107234
 20
0.727264
 11
3.820758
 21
0.440788
  0
LINE
  8
Layer0$C$L0
 10
3.806616
 20
0.440788
 11
4.093092
 21
0.727264
  0
LINE
  8
Layer0$C$L0
 10
4.078950
 20
0.727264
 11
3.792474
 21
0.440788
  0
LINE
  8
Layer0$C$L0
 10
3.778332
 20
0.440788
 11
4.064808
 21
0.727264
  0
LINE
  8
Layer0$C$L0
 10
4.050666
 20
0.727264
 11
3.764190
 21
0.440788
  0
LINE
  8
Layer0$C$L0
 10
3.750048
 20
0.440788
 11
4.036524
 21
0.727264
  0
LINE
  8
Layer0$C$L0
 10
4.022382
 20
0.727264
 11
3.735905
 21
0.440788
  0
LINE
  8
Layer0$C$L0
 10
3.721763
 20
0.440788
 11
4.008240
 21
0.727264
  0
LINE
  8
Layer0$C$L0
 10
3.994097
 20
0.727264
 11
3.707621
 21
0.440788
  0
LINE
  8
Layer0$C$L0
 10
3.704484
 20
0.451793
 11
3.979955
 21
0.727264
  0
LINE
  8
Layer0$C$L0
 10
3.965813
 20
0.727264
 11
3.704484
 21
0.465935
  0
LINE
  8
Layer0$C$L0
 10
3.704484
 20
0.480077
 11
3.951671
 21
0.727264
  0
LINE
  8
Layer0$C$L0
 10
3.937529
 20
0.727264
 11
3.704484
 21
0.494219
  0
LINE
  8
Layer0$C$L0
 10
3.704484
 20
0.508361
 11
3.923387
 21
0.727264
  0
LINE
  8
Layer0$C$L0
 10
3.909245
 20
0.727264
 11
3.704484
 21
0.522503
  0
LINE
  8
Layer0$C$L0
 10
3.704484
 20
0.536646
 11
3.895103
 21
0.727264
  0
LINE
  8
Layer0$C$L0
 10
3.880960
 20
0.727264
 11
3.704484
 21
0.550788
  0
LINE
  8
Layer0$C$L0
 10
3.704484
 20
0.564930
 11
3.866818
 21
0.727264
  0
LINE
  8
Layer0$C$L0
 10
3.852676
 20
0.727264
 11
3.704484
 21
0.579072
  0
LINE
  8
Layer0$C$L0
 10
3.704484
 20
0.593214
 11
3.838534
 21
0.727264
  0
LINE
  8
Layer0$C$L0
 10
3.824392
 20
0.727264
 11
3.704484
 21
0.607356
  0
LINE
  8
Layer0$C$L0
 10
3.704484
 20
0.621498
 11
3.810250
 21
0.727264
  0
LINE
  8
Layer0$C$L0
 10
3.796108
 20
0.727264
 11
3.704484
 21
0.635641
  0
LINE
  8
Layer0$C$L0
 10
3.704484
 20
0.649783
 11
3.781965
 21
0.727264
  0
LINE
  8
Layer0$C$L0
 10
3.767823
 20
0.727264
 11
3.704484
 21
0.663925
  0
LINE
  8
Layer0$C$L0
 10
3.704484
 20
0.678067
 11
3.753681
 21
0.727264
  0
LINE
  8
Layer0$C$L0
 10
3.739539
 20
0.727264
 11
3.704484
 21
0.692209
  0
LINE
  8
Layer0$C$L0
 10
3.704484
 20
0.706351
 11
3.725397
 21
0.727264
  0
LINE
  8
Layer0$C$L0
 10
3.711255
 20
0.727264
 11
3.704484
 21
0.720493
  0
ENDBLK
  8
Layer0$C$L0
  0
BLOCK
  8
Layer0$C$L0
  2
*X3
 70
     1
 10
0.000000
 20
0.000000
  0
LINE
  8
Layer0$C$L0
 10
0.828653
 20
0.404389
 11
0.831420
 21
0.407156
  0
LINE
  8
Layer0$C$L0
 10
0.831403
 20
0.421282
 11
0.819820
 21
0.409698
  0
LINE
  8
Layer0$C$L0
 10
0.810411
 20
0.414431
 11
0.831387
 21
0.435407
  0
LINE
  8
Layer0$C$L0
 10
0.831371
 20
0.449533
 11
0.800544
 21
0.418706
  0
LINE
  8
Layer0$C$L0
 10
0.790323
 20
0.422628
 11
0.831355
 21
0.463659
  0
LINE
  8
Layer0$C$L0
 10
0.824938
 20
0.471384
 11
0.779767
 21
0.426213
  0
LINE
  8
Layer0$C$L0
 10
0.768887
 20
0.429476
 11
0.810297
 21
0.470886
  0
LINE
  8
Layer0$C$L0
 10
0.795657
 20
0.470388
 11
0.757709
 21
0.432440
  0
LINE
  8
Layer0$C$L0
 10
0.746285
 20
0.435158
 11
0.781016
 21
0.469889
  0
LINE
  8
Layer0$C$L0
 10
0.766376
 20
0.469391
 11
0.734662
 21
0.437677
  0
LINE
  8
Layer0$C$L0
 10
0.722875
 20
0.440032
 11
0.751736
 21
0.468893
  0
LINE
  8
Layer0$C$L0
 10
0.737095
 20
0.468395
 11
0.710956
 21
0.442256
  0
LINE
  8
Layer0$C$L0
 10
0.698925
 20
0.444366
 11
0.722455
 21
0.467896
  0
LINE
  8
Layer0$C$L0
 10
0.707814
 20
0.467398
 11
0.686797
 21
0.446381
  0
LINE
  8
Layer0$C$L0
 10
0.674584
 20
0.448310
 11
0.693174
 21
0.466900
  0
LINE
  8
Layer0$C$L0
 10
0.683959
 20
0.471827
 11
0.662289
 21
0.450157
  0
LINE
  8
Layer0$C$L0
 10
0.649916
 20
0.451926
 11
0.679090
 21
0.481100
  0
LINE
  8
Layer0$C$L0
 10
0.672681
 20
0.488833
 11
0.637474
 21
0.453626
  0
LINE
  8
Layer0$C$L0
 10
0.624985
 20
0.455280
 11
0.664796
 21
0.495090
  0
LINE
  8
Layer0$C$L0
 10
0.655531
 20
0.499968
 11
0.612476
 21
0.456912
  0
LINE
  8
Layer0$C$L0
 10
0.599985
 20
0.458564
 11
0.645016
 21
0.503594
  0
LINE
  8
Layer0$C$L0
 10
0.633432
 20
0.506152
 11
0.587635
 21
0.460356
  0
LINE
  8
Layer0$C$L0
 10
0.575584
 20
0.462447
 11
0.620900
 21
0.507763
  0
LINE
  8
Layer0$C$L0
 10
0.607508
 20
0.508513
 11
0.564109
 21
0.465114
  0
LINE
  8
Layer0$C$L0
 10
0.553669
 20
0.468816
 11
0.593302
 21
0.508449
  0
LINE
  8
Layer0$C$L0
 10
0.577937
 20
0.507227
 11
0.545069
 21
0.474358
  0
LINE
  8
Layer0$C$L0
 10
0.540659
 20
0.484090
 11
0.559161
 21
0.502593
  0
ENDBLK
  8
Layer0$C$L0
  0
BLOCK
  8
Layer0$C$L0
  2
*X4
 70
     1
 10
0.000000
 20
0.000000
  0
LINE
  8
Layer0$C$L0
 10
0.826519
 20
0.515392
 11
0.831290
 21
0.520163
  0
LINE
  8
Layer0$C$L0
 10
0.831274
 20
0.534289
 11
0.819562
 21
0.522578
  0
LINE
  8
Layer0$C$L0
 10
0.811924
 20
0.529082
 11
0.831258
 21
0.548415
  0
LINE
  8
Layer0$C$L0
 10
0.831242
 20
0.562541
 11
0.803572
 21
0.534872
  0
LINE
  8
Layer0$C$L0
 10
0.794575
 20
0.540016
 11
0.831225
 21
0.576667
  0
LINE
  8
Layer0$C$L0
 10
0.831209
 20
0.590793
 11
0.784996
 21
0.544579
  0
LINE
  8
Layer0$C$L0
 10
0.774913
 20
0.548638
 11
0.831193
 21
0.604919
  0
LINE
  8
Layer0$C$L0
 10
0.831177
 20
0.619045
 11
0.764366
 21
0.552234
  0
LINE
  8
Layer0$C$L0
 10
0.753389
 20
0.555400
 11
0.831161
 21
0.633171
  0
LINE
  8
Layer0$C$L0
 10
0.831144
 20
0.647297
 11
0.742016
 21
0.558168
  0
LINE
  8
Layer0$C$L0
 10
0.730275
 20
0.560570
 11
0.831128
 21
0.661423
  0
LINE
  8
Layer0$C$L0
 10
0.831112
 20
0.675549
 11
0.718196
 21
0.562633
  0
LINE
  8
Layer0$C$L0
 10
0.705800
 20
0.564379
 11
0.831096
 21
0.689675
  0
LINE
  8
Layer0$C$L0
 10
0.831080
 20
0.703801
 11
0.693109
 21
0.565829
  0
LINE
  8
Layer0$C$L0
 10
0.680142
 20
0.567005
 11
0.831064
 21
0.717926
  0
LINE
  8
Layer0$C$L0
 10
0.831047
 20
0.732052
 11
0.666912
 21
0.567917
  0
LINE
  8
Layer0$C$L0
 10
0.653434
 20
0.568581
 11
0.831031
 21
0.746178
  0
LINE
  8
Layer0$C$L0
 10
0.831015
 20
0.760304
 11
0.639723
 21
0.569012
  0
LINE
  8
Layer0$C$L0
 10
0.625798
 20
0.569229
 11
0.830999
 21
0.774430
  0
LINE
  8
Layer0$C$L0
 10
0.830983
 20
0.788556
 11
0.611677
 21
0.569250
  0
LINE
  8
Layer0$C$L0
 10
0.597362
 20
0.569078
 11
0.830966
 21
0.802682
  0
LINE
  8
Layer0$C$L0
 10
0.830950
 20
0.816808
 11
0.582830
 21
0.568688
  0
LINE
  8
Layer0$C$L0
 10
0.568051
 20
0.568051
 11
0.830934
 21
0.830934
  0
LINE
  8
Layer0$C$L0
 10
0.817850
 20
0.831992
 11
0.552974
 21
0.567116
  0
LINE
  8
Layer0$C$L0
 10
0.537525
 20
0.565809
 11
0.803708
 21
0.831992
  0
LINE
  8
Layer0$C$L0
 10
0.789566
 20
0.831992
 11
0.521588
 21
0.564015
  0
LINE
  8
Layer0$C$L0
 10
0.504961
 20
0.561530
 11
0.775423
 21
0.831992
  0
LINE
  8
Layer0$C$L0
 10
0.761281
 20
0.831992
 11
0.487322
 21
0.558032
  0
LINE
  8
Layer0$C$L0
 10
0.468119
 20
0.552972
 11
0.747139
 21
0.831992
  0
LINE
  8
Layer0$C$L0
 10
0.732997
 20
0.831992
 11
0.446304
 21
0.545298
  0
LINE
  8
Layer0$C$L0
 10
0.388165
 20
0.501302
 11
0.390226
 21
0.503363
  0
LINE
  8
Layer0$C$L0
 10
0.718855
 20
0.831992
 11
0.416351
 21
0.529488
  0
LINE
  8
Layer0$C$L0
 10
0.704713
 20
0.831992
 11
0.388165
 21
0.515444
  0
LINE
  8
Layer0$C$L0
 10
0.690571
 20
0.831992
 11
0.388165
 21
0.529586
  0
LINE
  8
Layer0$C$L0
 10
0.676429
 20
0.831992
 11
0.388165
 21
0.543728
  0
LINE
  8
Layer0$C$L0
 10
0.662286
 20
0.831992
 11
0.388165
 21
0.557871
  0
LINE
  8
Layer0$C$L0
 10
0.648144
 20
0.831992
 11
0.380069
 21
0.563917
  0
LINE
  8
Layer0$C$L0
 10
0.634002
 20
0.831992
 11
0.365927
 21
0.563917
  0
LINE
  8
Layer0$C$L0
 10
0.619860
 20
0.831992
 11
0.351785
 21
0.563917
  0
LINE
  8
Layer0$C$L0
 10
0.605718
 20
0.831992
 11
0.337643
 21
0.563917
  0
LINE
  8
Layer0$C$L0
 10
0.591576
 20
0.831992
 11
0.323501
 21
0.563917
  0
LINE
  8
Layer0$C$L0
 10
0.577434
 20
0.831992
 11
0.309359
 21
0.563917
  0
LINE
  8
Layer0$C$L0
 10
0.563291
 20
0.831992
 11
0.295216
 21
0.563917
  0
LINE
  8
Layer0$C$L0
 10
0.549149
 20
0.831992
 11
0.281074
 21
0.563917
  0
LINE
  8
Layer0$C$L0
 10
0.535007
 20
0.831992
 11
0.266932
 21
0.563917
  0
LINE
  8
Layer0$C$L0
 10
0.520865
 20
0.831992
 11
0.252790
 21
0.563917
  0
LINE
  8
Layer0$C$L0
 10
0.506723
 20
0.831992
 11
0.238648
 21
0.563917
  0
LINE
  8
Layer0$C$L0
 10
0.492581
 20
0.831992
 11
0.224506
 21
0.563917
  0
LINE
  8
Layer0$C$L0
 10
0.478439
 20
0.831992
 11
0.210364
 21
0.563917
  0
LINE
  8
Layer0$C$L0
 10
0.464296
 20
0.831992
 11
0.196222
 21
0.563917
  0
LINE
  8
Layer0$C$L0
 10
0.450154
 20
0.831992
 11
0.182079
 21
0.563917
  0
LINE
  8
Layer0$C$L0
 10
0.436012
 20
0.831992
 11
0.167937
 21
0.563917
  0
LINE
  8
Layer0$C$L0
 10
0.421870
 20
0.831992
 11
0.153795
 21
0.563917
  0
LINE
  8
Layer0$C$L0
 10
0.407728
 20
0.831992
 11
0.139653
 21
0.563917
  0
LINE
  8
Layer0$C$L0
 10
0.393586
 20
0.831992
 11
0.125511
 21
0.563917
  0
LINE
  8
Layer0$C$L0
 10
0.379444
 20
0.831992
 11
0.111369
 21
0.563917
  0
LINE
  8
Layer0$C$L0
 10
0.365302
 20
0.831992
 11
9.722657E-02
 21
0.563917
  0
LINE
  8
Layer0$C$L0
 10
0.351159
 20
0.831992
 11
8.308443E-02
 21
0.563917
  0
LINE
  8
Layer0$C$L0
 10
0.337017
 20
0.831992
 11
6.894229E-02
 21
0.563917
  0
LINE
  8
Layer0$C$L0
 10
0.322875
 20
0.831992
 11
5.480016E-02
 21
0.563917
  0
LINE
  8
Layer0$C$L0
 10
0.308733
 20
0.831992
 11
4.065802E-02
 21
0.563917
  0
LINE
  8
Layer0$C$L0
 10
0.294591
 20
0.831992
 11
2.651589E-02
 21
0.563917
  0
LINE
  8
Layer0$C$L0
 10
0.280449
 20
0.831992
 11
1.237375E-02
 21
0.563917
  0
LINE
  8
Layer0$C$L0
 10
0.266307
 20
0.831992
 11
-2.839878E-04
 21
0.565401
  0
LINE
  8
Layer0$C$L0
 10
0.252164
 20
0.831992
 11
-2.910964E-04
 21
0.579536
  0
LINE
  8
Layer0$C$L0
 10
0.238022
 20
0.831992
 11
-2.982049E-04
 21
0.593672
  0
LINE
  8
Layer0$C$L0
 10
0.223880
 20
0.831992
 11
-3.053135E-04
 21
0.607807
  0
LINE
  8
Layer0$C$L0
 10
0.209738
 20
0.831992
 11
-3.124221E-04
 21
0.621942
  0
LINE
  8
Layer0$C$L0
 10
0.195596
 20
0.831992
 11
-3.195306E-04
 21
0.636077
  0
LINE
  8
Layer0$C$L0
 10
0.181454
 20
0.831992
 11
-3.266392E-04
 21
0.650212
  0
LINE
  8
Layer0$C$L0
 10
0.167312
 20
0.831992
 11
-3.337478E-04
 21
0.664347
  0
LINE
  8
Layer0$C$L0
 10
0.153170
 20
0.831992
 11
-3.408563E-04
 21
0.678482
  0
LINE
  8
Layer0$C$L0
 10
0.139027
 20
0.831992
 11
-3.479649E-04
 21
0.692617
  0
LINE
  8
Layer0$C$L0
 10
0.124885
 20
0.831992
 11
-3.550735E-04
 21
0.706752
  0
LINE
  8
Layer0$C$L0
 10
0.110743
 20
0.831992
 11
-3.621821E-04
 21
0.720887
  0
LINE
  8
Layer0$C$L0
 10
9.638471E-02
 20
0.831776
 11
-1.499182E-04
 21
0.735241
  0
LINE
  8
Layer0$C$L0
 10
7.987581E-02
 20
0.829409
 11
2.217033E-03
 21
0.751750
  0
LINE
  8
Layer0$C$L0
 10
5.808144E-02
 20
0.821757
 11
9.868835E-03
 21
0.773544
  0
ENDBLK
  8
Layer0$C$L0
  0
BLOCK
  8
Layer0$C$L0
  2
*X5
 70
     1
 10
0.000000
 20
0.000000
  0
LINE
  8
Layer0$C$L0
 10
0.774478
 20
1.080228E-02
 11
0.820966
 21
5.729027E-02
  0
LINE
  8
Layer0$C$L0
 10
0.829011
 20
7.947817E-02
 11
0.752290
 21
2.756651E-03
  0
LINE
  8
Layer0$C$L0
 10
0.735646
 20
2.550570E-04
 11
0.831513
 21
9.612186E-02
  0
LINE
  8
Layer0$C$L0
 10
0.831760
 20
0.110511
 11
0.721249
 21
2.220446E-16
  0
LINE
  8
Layer0$C$L0
 10
0.707107
 20
2.220446E-16
 11
0.831743
 21
0.124637
  0
LINE
  8
Layer0$C$L0
 10
0.831727
 20
0.138763
 11
0.692965
 21
2.775558E-16
  0
LINE
  8
Layer0$C$L0
 10
0.678823
 20
2.220446E-16
 11
0.831711
 21
0.152888
  0
LINE
  8
Layer0$C$L0
 10
0.831695
 20
0.167014
 11
0.664680
 21
2.775558E-16
  0
LINE
  8
Layer0$C$L0
 10
0.650538
 20
2.220446E-16
 11
0.831679
 21
0.181140
  0
LINE
  8
Layer0$C$L0
 10
0.831662
 20
0.195266
 11
0.636396
 21
2.220446E-16
  0
LINE
  8
Layer0$C$L0
 10
0.622254
 20
2.220446E-16
 11
0.831646
 21
0.209392
  0
LINE
  8
Layer0$C$L0
 10
0.831630
 20
0.223518
 11
0.608112
 21
2.220446E-16
  0
LINE
  8
Layer0$C$L0
 10
0.593970
 20
2.220446E-16
 11
0.831614
 21
0.237644
  0
LINE
  8
Layer0$C$L0
 10
0.831598
 20
0.251770
 11
0.579828
 21
2.220446E-16
  0
LINE
  8
Layer0$C$L0
 10
0.565685
 20
1.665335E-16
 11
0.831581
 21
0.265896
  0
LINE
  8
Layer0$C$L0
 10
0.831565
 20
0.280022
 11
0.551543
 21
2.220446E-16
  0
LINE
  8
Layer0$C$L0
 10
0.537401
 20
1.665335E-16
 11
0.799398
 21
0.261997
  0
LINE
  8
Layer0$C$L0
 10
0.775868
 20
0.252609
 11
0.523259
 21
2.220446E-16
  0
LINE
  8
Layer0$C$L0
 10
0.509117
 20
1.665335E-16
 11
0.755684
 21
0.246567
  0
LINE
  8
Layer0$C$L0
 10
0.737297
 20
0.242322
 11
0.494975
 21
1.942890E-16
  0
LINE
  8
Layer0$C$L0
 10
0.480833
 20
1.942890E-16
 11
0.720071
 21
0.239238
  0
LINE
  8
Layer0$C$L0
 10
0.703660
 20
0.236969
 11
0.466690
 21
1.942890E-16
  0
LINE
  8
Layer0$C$L0
 10
0.452548
 20
1.665335E-16
 11
0.687849
 21
0.235300
  0
LINE
  8
Layer0$C$L0
 10
0.672498
 20
0.234091
 11
0.438406
 21
1.665335E-16
  0
LINE
  8
Layer0$C$L0
 10
0.424264
 20
1.665335E-16
 11
0.657526
 21
0.233262
  0
LINE
  8
Layer0$C$L0
 10
0.642870
 20
0.232748
 11
0.410122
 21
1.665335E-16
  0
LINE
  8
Layer0$C$L0
 10
0.395980
 20
1.665335E-16
 11
0.628472
 21
0.232492
  0
LINE
  8
Layer0$C$L0
 10
0.614284
 20
0.232446
 11
0.381838
 21
1.942890E-16
  0
LINE
  8
Layer0$C$L0
 10
0.367696
 20
1.665335E-16
 11
0.600279
 21
0.232583
  0
LINE
  8
Layer0$C$L0
 10
0.698925
 20
0.331229
 11
0.670736
 21
0.303041
  0
LINE
  8
Layer0$C$L0
 10
0.586454
 20
0.232900
 11
0.353553
 21
1.665335E-16
  0
LINE
  8
Layer0$C$L0
 10
0.694832
 20
0.341279
 11
0.652051
 21
0.298497
  0
LINE
  8
Layer0$C$L0
 10
0.572808
 20
0.233397
 11
0.339411
 21
1.665335E-16
  0
LINE
  8
Layer0$C$L0
 10
0.687522
 20
0.348110
 11
0.636267
 21
0.296856
  0
LINE
  8
Layer0$C$L0
 10
0.559352
 20
0.234083
 11
0.325269
 21
1.665335E-16
  0
LINE
  8
Layer0$C$L0
 10
0.678601
 20
0.353332
 11
0.621724
 21
0.296455
  0
LINE
  8
Layer0$C$L0
 10
0.546104
 20
0.234977
 11
0.311127
 21
1.665335E-16
  0
LINE
  8
Layer0$C$L0
 10
0.668387
 20
0.357260
 11
0.608008
 21
0.296881
  0
LINE
  8
Layer0$C$L0
 10
0.533080
 20
0.236096
 11
0.296985
 21
1.387779E-16
  0
LINE
  8
Layer0$C$L0
 10
0.657320
 20
0.360335
 11
0.595116
 21
0.298132
  0
LINE
  8
Layer0$C$L0
 10
0.520300
 20
0.237458
 11
0.282843
 21
1.387779E-16
  0
LINE
  8
Layer0$C$L0
 10
0.645792
 20
0.362949
 11
0.583081
 21
0.300238
  0
LINE
  8
Layer0$C$L0
 10
0.507779
 20
0.239079
 11
0.268701
 21
1.387779E-16
  0
LINE
  8
Layer0$C$L0
 10
0.633908
 20
0.365208
 11
0.571919
 21
0.303218
  0
LINE
  8
Layer0$C$L0
 10
0.495543
 20
0.240985
 11
0.254558
 21
1.387779E-16
  0
LINE
  8
Layer0$C$L0
 10
0.621771
 20
0.367213
 11
0.561640
 21
0.307082
  0
LINE
  8
Layer0$C$L0
 10
0.483622
 20
0.243205
 11
0.240416
 21
1.249001E-16
  0
LINE
  8
Layer0$C$L0
 10
0.609463
 20
0.369047
 11
0.552301
 21
0.311884
  0
LINE
  8
Layer0$C$L0
 10
0.472044
 20
0.245770
 11
0.226274
 21
1.387779E-16
  0
LINE
  8
Layer0$C$L0
 10
0.597058
 20
0.370784
 11
0.544015
 21
0.317741
  0
LINE
  8
Layer0$C$L0
 10
0.460838
 20
0.248706
 11
0.212132
 21
1.387779E-16
  0
LINE
  8
Layer0$C$L0
 10
0.584636
 20
0.372504
 11
0.536922
 21
0.324790
  0
LINE
  8
Layer0$C$L0
 10
0.450043
 20
0.252053
 11
0.197990
 21
1.249001E-16
  0
LINE
  8
Layer0$C$L0
 10
0.572253
 20
0.374264
 11
0.531185
 21
0.333196
  0
LINE
  8
Layer0$C$L0
 10
0.439750
 20
0.255903
 11
0.183848
 21
1.249001E-16
  0
LINE
  8
Layer0$C$L0
 10
0.559950
 20
0.376103
 11
0.526770
 21
0.342922
  0
LINE
  8
Layer0$C$L0
 10
0.430021
 20
0.260316
 11
0.169706
 21
1.110223E-16
  0
LINE
  8
Layer0$C$L0
 10
0.547763
 20
0.378057
 11
0.521339
 21
0.351633
  0
LINE
  8
Layer0$C$L0
 10
0.420813
 20
0.265250
 11
0.155563
 21
9.714451E-17
  0
LINE
  8
Layer0$C$L0
 10
0.535718
 20
0.380154
 11
0.506661
 21
0.351098
  0
LINE
  8
Layer0$C$L0
 10
0.412077
 20
0.270656
 11
0.141421
 21
8.326673E-17
  0
LINE
  8
Layer0$C$L0
 10
0.523826
 20
0.382405
 11
0.491984
 21
0.350563
  0
LINE
  8
Layer0$C$L0
 10
0.403817
 20
0.276538
 11
0.127279
 21
6.938894E-17
  0
LINE
  8
Layer0$C$L0
 10
0.512094
 20
0.384815
 11
0.477306
 21
0.350027
  0
LINE
  8
Layer0$C$L0
 10
0.396047
 20
0.282910
 11
0.113137
 21
5.551115E-17
  0
LINE
  8
Layer0$C$L0
 10
0.500529
 20
0.387392
 11
0.462629
 21
0.349492
  0
LINE
  8
Layer0$C$L0
 10
0.388780
 20
0.289785
 11
9.899495E-02
 21
4.163336E-17
  0
LINE
  8
Layer0$C$L0
 10
0.489154
 20
0.390159
 11
0.447952
 21
0.348957
  0
LINE
  8
Layer0$C$L0
 10
0.382053
 20
0.297200
 11
8.485281E-02
 21
3.469447E-17
  0
LINE
  8
Layer0$C$L0
 10
0.477992
 20
0.393139
 11
0.433274
 21
0.348421
  0
LINE
  8
Layer0$C$L0
 10
0.375954
 20
0.305243
 11
7.071068E-02
 21
3.469447E-17
  0
LINE
  8
Layer0$C$L0
 10
0.467070
 20
0.396359
 11
0.418597
 21
0.347886
  0
LINE
  8
Layer0$C$L0
 10
0.370592
 20
0.314024
 11
5.656854E-02
 21
3.122502E-17
  0
LINE
  8
Layer0$C$L0
 10
0.456439
 20
0.399870
 11
0.403919
 21
0.347351
  0
LINE
  8
Layer0$C$L0
 10
0.366105
 20
0.323678
 11
4.242641E-02
 21
2.775558E-17
  0
LINE
  8
Layer0$C$L0
 10
0.446143
 20
0.403717
 11
0.389242
 21
0.346815
  0
LINE
  8
Layer0$C$L0
 10
0.362566
 20
0.334282
 11
2.828427E-02
 21
2.602085E-17
  0
LINE
  8
Layer0$C$L0
 10
0.436232
 20
0.407948
 11
0.374564
 21
0.346280
  0
LINE
  8
Layer0$C$L0
 10
0.426750
 20
0.412608
 11
1.414214E-02
 21
2.168404E-17
  0
LINE
  8
Layer0$C$L0
 10
0.417760
 20
0.417760
 11
-9.860761E-32
 21
4.366820E-16
  0
LINE
  8
Layer0$C$L0
 10
0.409364
 20
0.423506
 11
-7.091582E-06
 21
1.413504E-02
  0
LINE
  8
Layer0$C$L0
 10
0.344346
 20
0.372630
 11
-1.418316E-05
 21
2.827009E-02
  0
LINE
  8
Layer0$C$L0
 10
0.401660
 20
0.429945
 11
0.354232
 21
0.382516
  0
LINE
  8
Layer0$C$L0
 10
0.330204
 20
0.372630
 11
-2.127475E-05
 21
4.240513E-02
  0
LINE
  8
Layer0$C$L0
 10
0.394766
 20
0.437192
 11
0.354232
 21
0.396658
  0
LINE
  8
Layer0$C$L0
 10
0.316061
 20
0.372630
 11
-2.836633E-05
 21
5.654018E-02
  0
LINE
  8
Layer0$C$L0
 10
0.388871
 20
0.445440
 11
0.354232
 21
0.410801
  0
LINE
  8
Layer0$C$L0
 10
0.301919
 20
0.372630
 11
-3.545791E-05
 21
7.067522E-02
  0
LINE
  8
Layer0$C$L0
 10
0.384309
 20
0.455020
 11
0.354232
 21
0.424943
  0
LINE
  8
Layer0$C$L0
 10
0.155608
 20
0.240461
 11
-4.254949E-05
 21
8.481026E-02
  0
LINE
  8
Layer0$C$L0
 10
0.287777
 20
0.372630
 11
0.156106
 21
0.240959
  0
LINE
  8
Layer0$C$L0
 10
0.381506
 20
0.466359
 11
0.353072
 21
0.437925
  0
LINE
  8
Layer0$C$L0
 10
0.141466
 20
0.240461
 11
-4.964108E-05
 21
9.894530E-02
  0
LINE
  8
Layer0$C$L0
 10
0.273635
 20
0.372630
 11
0.156106
 21
0.255101
  0
LINE
  8
Layer0$C$L0
 10
0.381482
 20
0.480477
 11
0.338930
 21
0.437925
  0
LINE
  8
Layer0$C$L0
 10
0.127324
 20
0.240461
 11
-5.673266E-05
 21
0.113080
  0
LINE
  8
Layer0$C$L0
 10
0.259493
 20
0.372630
 11
0.156106
 21
0.269243
  0
LINE
  8
Layer0$C$L0
 10
0.381269
 20
0.494406
 11
0.324788
 21
0.437925
  0
LINE
  8
Layer0$C$L0
 10
0.113182
 20
0.240461
 11
-6.382424E-05
 21
0.127215
  0
LINE
  8
Layer0$C$L0
 10
0.245351
 20
0.372630
 11
0.156106
 21
0.283385
  0
LINE
  8
Layer0$C$L0
 10
0.367127
 20
0.494406
 11
0.310646
 21
0.437925
  0
LINE
  8
Layer0$C$L0
 10
9.903964E-02
 20
0.240461
 11
-7.091582E-05
 21
0.141350
  0
LINE
  8
Layer0$C$L0
 10
0.231209
 20
0.372630
 11
0.156106
 21
0.297527
  0
LINE
  8
Layer0$C$L0
 10
0.352985
 20
0.494406
 11
0.296504
 21
0.437925
  0
LINE
  8
Layer0$C$L0
 10
8.489750E-02
 20
0.240461
 11
-7.800740E-05
 21
0.155485
  0
LINE
  8
Layer0$C$L0
 10
0.217067
 20
0.372630
 11
0.156106
 21
0.311669
  0
LINE
  8
Layer0$C$L0
 10
0.338842
 20
0.494406
 11
0.282361
 21
0.437925
  0
LINE
  8
Layer0$C$L0
 10
7.075536E-02
 20
0.240461
 11
-8.509899E-05
 21
0.169621
  0
LINE
  8
Layer0$C$L0
 10
0.202924
 20
0.372630
 11
0.156106
 21
0.325812
  0
LINE
  8
Layer0$C$L0
 10
0.324700
 20
0.494406
 11
0.268219
 21
0.437925
  0
LINE
  8
Layer0$C$L0
 10
5.661323E-02
 20
0.240461
 11
-9.219057E-05
 21
0.183756
  0
LINE
  8
Layer0$C$L0
 10
0.188782
 20
0.372630
 11
0.156106
 21
0.339954
  0
LINE
  8
Layer0$C$L0
 10
0.310558
 20
0.494406
 11
0.254077
 21
0.437925
  0
LINE
  8
Layer0$C$L0
 10
4.247109E-02
 20
0.240461
 11
-9.928215E-05
 21
0.197891
  0
LINE
  8
Layer0$C$L0
 10
0.174640
 20
0.372630
 11
0.156106
 21
0.354096
  0
LINE
  8
Layer0$C$L0
 10
0.296416
 20
0.494406
 11
0.239935
 21
0.437925
  0
LINE
  8
Layer0$C$L0
 10
2.832896E-02
 20
0.240461
 11
-1.063737E-04
 21
0.212026
  0
LINE
  8
Layer0$C$L0
 10
0.160498
 20
0.372630
 11
0.156106
 21
0.368238
  0
LINE
  8
Layer0$C$L0
 10
0.282274
 20
0.494406
 11
0.225793
 21
0.437925
  0
LINE
  8
Layer0$C$L0
 10
1.418682E-02
 20
0.240461
 11
-1.134653E-04
 21
0.226161
  0
LINE
  8
Layer0$C$L0
 10
0.268132
 20
0.494406
 11
0.211651
 21
0.437925
  0
LINE
  8
Layer0$C$L0
 10
0.253990
 20
0.494406
 11
0.197509
 21
0.437925
  0
LINE
  8
Layer0$C$L0
 10
0.239847
 20
0.494406
 11
0.183367
 21
0.437925
  0
LINE
  8
Layer0$C$L0
 10
0.225705
 20
0.494406
 11
0.169224
 21
0.437925
  0
LINE
  8
Layer0$C$L0
 10
0.211563
 20
0.494406
 11
0.156106
 21
0.438949
  0
LINE
  8
Layer0$C$L0
 10
0.197421
 20
0.494406
 11
0.156106
 21
0.453091
  0
LINE
  8
Layer0$C$L0
 10
0.183279
 20
0.494406
 11
0.156106
 21
0.467233
  0
LINE
  8
Layer0$C$L0
 10
0.169137
 20
0.494406
 11
0.156106
 21
0.481375
  0
ENDBLK
  8
Layer0$C$L0
  0
BLOCK
  8
Layer120$C$L120
  2
ASIZE-OUTLINE-LASER
 70
     0
 10
0.000000
 20
0.000000
  0
INSERT
  8
Layer0$C$L0
  2
DRAWING_HIST_BLOCK
 10
4.350000
 20
3.712500
  0
INSERT
  8
Layer0$C$L0
  2
LOGO
 10
-4.855631
 20
-2.658703
 41
0.400000
 42
0.400000
 43
0.400000
  0
TEXT
  8
Layer10$C$L10
 10
2.167001
 20
-2.607133
 40
8.000000E-02
  1
NOT TO BE USED FOR PRODUCTION
 41
0.897322
 72
     5
 11
4.177001
 21
-2.607133
  0
TEXT
  8
Layer10$C$L10
 10
2.552001
 20
-2.487133
 40
8.000000E-02
  1
OUTLINE DIMENSIONS
 41
0.911765
 72
     5
 11
3.792001
 21
-2.487133
  0
TEXT
  8
Layer0$C$L0
 10
-2.767811
 20
-2.624779
 40
6.000000E-02
  1
NEWBURYPORT,MA 01950
 72
     5
 11
-1.583855
 21
-2.624779
  0
TEXT
  8
Layer0$C$L0
 10
-2.770301
 20
-2.529800
 40
6.000000E-02
  1
374 MERRIMAC STREET
 72
     5
 11
-1.646345
 21
-2.529800
  0
TEXT
  8
Layer0$C$L0
 10
-2.772790
 20
-2.434821
 40
6.000000E-02
  1
FERRAZ SHAWMUT INC.
 72
     5
 11
-1.648834
 21
-2.434821
  0
POINT
  8
Layer0$C$L0
 10
-4.900000
 20
-2.287500
  0
POINT
  8
Layer0$C$L0
 10
-4.900000
 20
-2.287500
  0
TEXT
  8
Layer10$C$L10
 10
-3.065803
 20
-3.247500
 40
8.000001E-02
  1
DATE:
 41
0.968750
 72
     5
 11
-2.755803
 21
-3.247500
  0
TEXT
  8
Layer10$C$L10
 10
-3.065803
 20
-3.067500
 40
8.000001E-02
  1
SIGN:
 41
0.968750
 72
     5
 11
-2.755803
 21
-3.067500
  0
TEXT
  8
Layer10$C$L10
 10
-4.870124
 20
-3.067501
 40
8.000001E-02
  1
SIGN:
 41
0.968750
 72
     5
 11
-4.560124
 21
-3.067501
  0
TEXT
  8
Layer10$C$L10
 10
-4.870124
 20
-3.247500
 40
8.000001E-02
  1
DATE:
 41
0.968750
 72
     5
 11
-4.560124
 21
-3.247500
  0
LINE
  8
Layer0$C$L0
 10
3.477350
 20
3.813368
 11
4.400001
 21
3.813368
  0
TEXT
  8
Layer0$C$L0
 10
2.376839
 20
3.813577
 40
0.100000
  1
CONTROL No:
 72
     5
 11
3.450099
 21
3.813577
  0
TEXT
  8
Layer10$C$L10
 10
-2.864303
 20
-2.827502
 40
8.000000E-02
  1
%%uDESIGN ENGINEER%%u
 72
     5
 11
-1.685695
 21
-2.827502
  0
TEXT
  8
Layer10$C$L10
 10
-4.614303
 20
-2.827502
 40
8.000000E-02
  1
%%uPRODUCT MANAGER%%u
 72
     5
 11
-3.435695
 21
-2.827502
  0
LINE
  8
Layer0$C$L0
 10
-1.399999
 20
-2.707502
 11
-4.899999
 21
-2.707502
  0
LINE
  8
Layer0$C$L0
 10
-3.149999
 20
-3.287500
 11
-3.149999
 21
-2.707502
  0
LINE
  8
Layer0$C$L0
 10
2.000002
 20
-3.287500
 11
2.000002
 21
-2.287500
  0
LINE
  8
Layer0$C$L0
 10
2.000002
 20
-2.766401
 11
4.350000
 21
-2.766401
  0
LINE
  8
Layer0$C$L0
 10
4.350000
 20
-2.287500
 11
-4.899999
 21
-2.287500
  0
LINE
  8
Layer0$C$L0
 10
-1.399999
 20
-3.287500
 11
-1.399999
 21
-2.287500
  0
LINE
  8
Layer2$C$L2
 10
-4.9499995232
 20
3.7624997616
 11
-4.9499995232
 21
-3.3375000000
  0
LINE
  8
Layer2$C$L2
 10
4.4000004768
 20
3.7624997616
 11
4.4000004768
 21
-3.3375000000
  0
LINE
  8
Layer2$C$L2
 10
4.4000004768
 20
-3.3375000000
 11
-4.9499995232
 21
-3.3375000000
  0
LINE
  8
Layer2$C$L2
 10
4.4000004768
 20
3.7624997616
 11
-4.9499995232
 21
3.7624997616
  0
LINE
  8
Layer2$C$L2
 10
-4.8999995232
 20
3.7124997616
 11
-4.8999995232
 21
-3.2875000000
  0
LINE
  8
Layer2$C$L2
 10
4.3500004768
 20
3.7124997616
 11
-4.8999995232
 21
3.7124997616
  0
LINE
  8
Layer2$C$L2
 10
4.3500004768
 20
3.7124997616
 11
4.3500004768
 21
-3.2875000000
  0
LINE
  8
Layer2$C$L2
 10
4.3500004768
 20
-3.2875000000
 11
-4.8999995232
 21
-3.2875000000
  0
ENDBLK
  8
Layer2$C$L2
  0
BLOCK
  8
Layer0$C$L0
  2
DRAWING_HIST_BLOCK
 70
     0
 10
0.000000
 20
0.000000
  0
POINT
  8
Layer0$C$L0
 10
0.000000
 20
0.000000
  0
LINE
  8
Layer0$C$L0
 10
-3.750000
 20
-0.125000
 11
0.000000
 21
-0.125000
  0
LINE
  8
Layer0$C$L0
 10
-3.750000
 20
-0.125000
 11
-3.750000
 21
0.000000
  0
LINE
  8
Layer0$C$L0
 10
-3.480000
 20
-0.125000
 11
-3.480000
 21
0.000000
  0
LINE
  8
Layer0$C$L0
 10
-2.920000
 20
-0.125000
 11
-2.920000
 21
0.000000
  0
LINE
  8
Layer0$C$L0
 10
-2.560000
 20
-0.125000
 11
-2.560000
 21
0.000000
  0
LINE
  8
Layer0$C$L0
 10
-0.660000
 20
-0.125000
 11
-0.660000
 21
0.000000
  0
LINE
  8
Layer0$C$L0
 10
-0.440000
 20
-0.125000
 11
-0.440000
 21
0.000000
  0
LINE
  8
Layer0$C$L0
 10
-0.2199999988
 20
-0.1250000000
 11
-0.2199999988
 21
0.0000000000
  0
TEXT
  8
Layer0$C$L0
 10
-3.710165
 20
-8.842492E-02
 40
6.200000E-02
  1
REV
 72
     5
 11
-3.540744
 21
-8.842492E-02
  0
TEXT
  8
Layer0$C$L0
 10
-3.395861
 20
-8.842492E-02
 40
6.200000E-02
  1
DATE
 72
     5
 11
-3.164439
 21
-8.842492E-02
  0
TEXT
  8
Layer0$C$L0
 10
-2.837097
 20
-8.842492E-02
 40
6.200000E-02
  1
ECO
 72
     5
 11
-2.667676
 21
-8.842492E-02
  0
TEXT
  8
Layer0$C$L0
 10
-2.048841
 20
-8.842492E-02
 40
6.200000E-02
  1
DESCRIPTION
 72
     5
 11
-1.383420
 21
-8.842492E-02
  0
TEXT
  8
Layer0$C$L0
 10
-0.599460
 20
-9.645067E-02
 40
6.200000E-02
  1
BY
 72
     5
 11
-0.492038
 21
-9.645067E-02
  0
TEXT
  8
Layer0$C$L0
 10
-0.374613
 20
-9.495687E-02
 40
6.200000E-02
  1
CK
 72
     5
 11
-0.267191
 21
-9.495687E-02
  0
TEXT
  8
Layer0$C$L0
 10
-0.1936162094
 20
-9.3750074506E-02
 40
6.2500000000E-02
  1
APP
 72
     5
 11
-2.2828550885E-02
 21
-9.3750074506E-02
  0
ENDBLK
  8
Layer0$C$L0
  0
BLOCK
  8
Layer0$C$L0
  2
LOGO
 70
     0
 10
0.000000
 20
0.000000
  0
LINE
  8
Layer0$C$L0
 10
4.644067
 20
0.318351
 11
4.799984
 21
0.371567
  0
INSERT
  8
Layer0$C$L0
  2
*X0
 10
0.000000
 20
0.000000
  0
INSERT
  8
Layer0$C$L0
  2
*X1
 10
0.000000
 20
0.000000
  0
INSERT
  8
Layer0$C$L0
  2
*X2
 10
0.000000
 20
0.000000
  0
INSERT
  8
Layer0$C$L0
  2
*X3
 10
0.000000
 20
0.000000
  0
INSERT
  8
Layer0$C$L0
  2
*X4
 10
0.000000
 20
0.000000
  0
INSERT
  8
Layer0$C$L0
  2
*X5
 10
0.000000
 20
0.000000
  0
ENDBLK
  8
Layer0$C$L0
  0
ENDSEC
  0
SECTION
  2
ENTITIES
  0
TEXT
  8
Layer10$C$L10
 10
-0.547466
 20
-2.681621
 40
0.100000
  1
AMP-TRAP FORM 101
 72
     5
 11
1.125794
 21
-2.681621
  0
TEXT
  8
Layer10$C$L10
 10
0.941290
 20
3.431500
 40
6.200000E-02
  1
4-22-98
 72
     5
 11
1.358711
 21
3.431500
  0
TEXT
  8
Layer0$C$L0
 10
4.155290
 20
3.436159
 40
6.200000E-02
  1
N/A
 72
     5
 11
4.324711
 21
3.436159
  0
TEXT
  8
Layer10$C$L10
 10
3.935290
 20
3.431500
 40
6.200000E-02
  1
N/A
 72
     5
 11
4.104711
 21
3.431500
  0
LINE
  8
Layer0$C$L0
 10
4.1300003827
 20
3.3374998569
 11
4.1300003827
 21
3.5874998551
  0
LINE
  8
Layer0$C$L0
 10
3.910000
 20
3.337500
 11
3.910000
 21
3.587500
  0
LINE
  8
Layer0$C$L0
 10
3.690000
 20
3.337500
 11
3.690000
 21
3.587500
  0
LINE
  8
Layer0$C$L0
 10
1.790000
 20
3.337500
 11
1.790000
 21
3.587500
  0
LINE
  8
Layer0$C$L0
 10
1.430001
 20
3.337500
 11
1.430001
 21
3.587500
  0
LINE
  8
Layer0$C$L0
 10
0.600001
 20
3.337500
 11
0.600001
 21
3.587500
  0
LINE
  8
Layer0$C$L0
 10
0.870001
 20
3.337500
 11
0.870001
 21
3.587500
  0
LINE
  8
Layer0$C$L0
 10
0.600001
 20
3.337500
 11
4.350000
 21
3.337500
  0
TEXT
  8
Layer10$C$L10
 10
3.578311
 20
3.840040
 40
0.100000
  1
45
 72
     5
 11
3.751572
 21
3.840040
  0
TEXT
  8
Layer10$C$L10
 10
3.715290
 20
3.431500
 40
6.200000E-02
  1
LDB
 72
     5
 11
3.884711
 21
3.431500
  0
TEXT
  8
Layer10$C$L10
 10
2.004290
 20
3.431500
 40
6.200000E-02
  1
300 VOLTS READ 250 VOLTS
 72
     5
 11
3.475711
 21
3.431500
  0
TEXT
  8
Layer10$C$L10
 10
1.525290
 20
3.431500
 40
6.200000E-02
  1
N/A
 72
     5
 11
1.694711
 21
3.431500
  0
TEXT
  8
Layer10$C$L10
 10
0.712290
 20
3.431500
 40
6.200000E-02
  1
A
 72
     5
 11
0.757711
 21
3.431500
  0
TEXT
  8
Layer10$C$L10
 10
-0.847466
 20
-2.831621
 40
0.100000
  1
300 VOLTS   50-100 AMPS
 72
     5
 11
1.425794
 21
-2.831621
  0
INSERT
  8
Layer120$C$L120
  2
ASIZE-OUTLINE-LASER
 10
0.000000
 20
0.000000
  0
TEXT
  8
Layer10$C$L10
 10
-1.147467
 20
-2.981621
 40
0.100000
  1
CAT. NO. A30QS(AMP RATING)-4L
 72
     5
 11
1.725794
 21
-2.981621
  0
TEXT
  8
Layer10$C$L10
 10
2.441494
 20
-3.145411
 40
0.250000
  1
107139
 72
     5
 11
3.874645
 21
-3.145411
  0
POLYLINE
  8
Layer10$C$L10
 10
0.000000
 20
0.000000
 30
0.000000
 66
     1
 70
     0
  0
VERTEX
  8
Layer10$C$L10
 10
0.706485
 20
1.210758
  0
VERTEX
  8
Layer10$C$L10
 10
0.538260
 20
0.734617
  0
VERTEX
  8
Layer10$C$L10
 10
0.338260
 20
0.734617
  0
SEQEND
  8
Layer10$C$L10
  0
SOLID
  8
Layer10$C$L10
 10
0.626820
 20
1.076633
 11
0.684211
 21
1.056356
 12
0.706485
 22
1.210758
 13
0.706485
 23
1.210758
  0
TEXT
  8
Layer10$C$L10
 10
-0.785000
 20
0.684617
 40
0.100000
  1
.256 X .335
 72
     5
 11
0.288260
 21
0.684617
  0
TEXT
  8
Layer10$C$L10
 10
-0.785000
 20
0.534617
 40
0.100000
  1
[6.5mm x 8.5mm]
 72
     5
 11
0.688260
 21
0.534617
  0
DIMENSION
  8
Layer10$C$L10
  2
*D0
 10
1.671852
 20
1.084569
 11
1.671853
 21
0.704865
  3
DIM1
100
AcDbAlignedDimension
 13
1.053737
 23
1.584569
 14
1.053737
 24
1.084569
 50
-90.000000
100
AcDbRotatedDimension
  0
DIMENSION
  8
Layer10$C$L10
  2
*D1
 70
     1
 10
0.778147
 20
2.675925
 11
-4.862476E-02
 21
2.675925
  3
DIM1
100
AcDbAlignedDimension
 13
-0.875396
 23
1.575317
 14
0.778147
 24
1.575317
  0
DIMENSION
  8
Layer10$C$L10
  2
*D2
 70
     1
 10
0.463186
 20
2.200237
 11
-4.862470E-02
 21
2.200237
  3
DIM1
100
AcDbAlignedDimension
 13
-0.560436
 23
1.584569
 14
0.463186
 24
1.584569
  0
LINE
  8
Layer10$C$L10
  6
CENTERLINE
 10
0.537399
 20
1.334569
 11
1.018895
 21
1.334569
  0
LINE
  8
Layer10$C$L10
  6
CENTERLINE
 10
0.778147
 20
1.093821
 11
0.778147
 21
1.575317
  0
LINE
  8
Layer10$C$L10
  6
CENTERLINE
 10
-0.875396
 20
1.093821
 11
-0.875396
 21
1.575317
  0
LINE
  8
Layer10$C$L10
  6
CENTERLINE
 10
-1.116144
 20
1.334569
 11
-0.634648
 21
1.334569
  0
DIMENSION
  8
Layer10$C$L10
  2
*D3
 10
-2.547518
 20
-0.853127
 11
-2.547518
 21
-0.404297
  3
DIM1
100
AcDbAlignedDimension
 13
-0.439178
 23
4.453276E-02
 14
-1.150987
 24
-0.853127
 50
90.000000
100
AcDbRotatedDimension
  0
DIMENSION
  8
Layer10$C$L10
  2
*D4
 70
     1
 10
-1.963620
 20
-0.853127
 11
-1.963620
 21
-1.456810
  3
DIM1
100
AcDbAlignedDimension
 13
-1.150987
 23
-0.773127
 14
-1.150987
 24
-0.853127
  0
DIMENSION
  8
Layer10$C$L10
  2
*D5
 70
     1
 10
1.053737
 20
-1.414018
 11
-4.862470E-02
 21
-1.414018
  3
DIM1
100
AcDbAlignedDimension
 13
-1.150987
 23
-0.853127
 14
1.053737
 24
-0.853127
  0
INSERT
  8
Layer10$C$L10
  2
*D6
 10
0.000000
 20
0.000000
  0
LINE
  8
Layer0$C$L0
 62
     5
 10
-0.306652
 20
-0.769787
 11
-0.230936
 21
-0.716756
  0
ARC
  8
Layer0$C$L0
 62
     5
 10
-0.324436
 20
-0.744395
 40
3.100000E-02
100
AcDbArc
 50
267.845677
 51
305.007070
  0
ARC
  8
Layer0$C$L0
 62
     5
 10
-0.324436
 20
1.353277E-02
 40
3.100000E-02
100
AcDbArc
 50
54.992923
 51
92.154299
  0
LINE
  8
Layer0$C$L0
 62
     5
 10
-0.306652
 20
3.892423E-02
 11
-0.230936
 21
-1.410653E-02
  0
LINE
  8
Layer0$C$L0
 62
     5
 10
-0.431353
 20
4.053272E-02
 11
-0.325601
 21
4.451085E-02
  0
ARC
  8
Layer0$C$L0
 62
     5
 10
-0.429436
 20
-1.043116E-02
 40
5.100000E-02
100
AcDbArc
 50
92.154299
 51
180.000005
  0
ARC
  8
Layer0$C$L0
 62
     5
 10
-0.429436
 20
-0.720431
 40
5.100000E-02
100
AcDbArc
 50
180.000005
 51
267.845677
  0
LINE
  8
Layer0$C$L0
 62
     5
 10
-0.431353
 20
-0.771395
 11
-0.325601
 21
-0.775373
  0
LINE
  8
Layer0$C$L0
 62
     5
 10
-0.480436
 20
-1.043116E-02
 11
-0.480436
 21
-0.720431
  0
LINE
  8
Layer0$C$L0
 62
     5
 10
0.209402
 20
-0.769787
 11
0.133686
 21
-0.716756
  0
ARC
  8
Layer0$C$L0
 62
     5
 10
0.227186
 20
-0.744395
 40
3.100000E-02
100
AcDbArc
 50
234.992932
 51
272.154324
  0
ARC
  8
Layer0$C$L0
 62
     5
 10
0.227186
 20
1.353277E-02
 40
3.100000E-02
100
AcDbArc
 50
87.845699
 51
125.007078
  0
LINE
  8
Layer0$C$L0
 62
     5
 10
0.209402
 20
3.892423E-02
 11
0.133686
 21
-1.410653E-02
  0
LINE
  8
Layer0$C$L0
 62
     5
 10
0.334103
 20
4.053272E-02
 11
0.228352
 21
4.451085E-02
  0
ARC
  8
Layer0$C$L0
 62
     5
 10
0.332186
 20
-1.043116E-02
 40
5.100000E-02
100
AcDbArc
 50
359.999983
 51
447.845696
  0
ARC
  8
Layer0$C$L0
 62
     5
 10
0.332186
 20
-0.720431
 40
5.100000E-02
100
AcDbArc
 50
272.154324
 51
359.999983
  0
LINE
  8
Layer0$C$L0
 62
     5
 10
0.334103
 20
-0.771395
 11
0.228352
 21
-0.775373
  0
LINE
  8
Layer0$C$L0
 62
     5
 10
0.383186
 20
-1.043116E-02
 11
0.383186
 21
-0.720431
  0
LINE
  8
Layer0$C$L0
 62
     5
 10
0.209402
 20
0.930213
 11
0.133686
 21
0.983244
  0
ARC
  8
Layer0$C$L0
 62
     5
 10
0.227186
 20
0.955605
 40
3.100000E-02
100
AcDbArc
 50
234.992932
 51
272.154324
  0
ARC
  8
Layer0$C$L0
 62
     5
 10
0.227186
 20
1.713533
 40
3.100000E-02
100
AcDbArc
 50
87.845699
 51
125.007078
  0
LINE
  8
Layer0$C$L0
 62
     5
 10
0.209402
 20
1.738924
 11
0.133686
 21
1.685894
  0
LINE
  8
Layer0$C$L0
 62
     5
 10
0.334103
 20
1.740533
 11
0.228352
 21
1.744511
  0
ARC
  8
Layer0$C$L0
 62
     5
 10
0.332186
 20
1.689569
 40
5.100000E-02
100
AcDbArc
 50
359.999983
 51
447.845696
  0
ARC
  8
Layer0$C$L0
 62
     5
 10
0.332186
 20
0.979569
 40
5.100000E-02
100
AcDbArc
 50
272.154324
 51
359.999983
  0
LINE
  8
Layer0$C$L0
 62
     5
 10
0.334103
 20
0.928605
 11
0.228352
 21
0.924627
  0
LINE
  8
Layer0$C$L0
 62
     5
 10
0.383186
 20
1.689569
 11
0.383186
 21
0.979569
  0
LINE
  8
Layer0$C$L0
 62
     5
 10
-0.306652
 20
0.930213
 11
-0.230936
 21
0.983244
  0
ARC
  8
Layer0$C$L0
 62
     5
 10
-0.324436
 20
0.955605
 40
3.100000E-02
100
AcDbArc
 50
267.845677
 51
305.007070
  0
ARC
  8
Layer0$C$L0
 62
     5
 10
-0.324436
 20
1.713533
 40
3.100000E-02
100
AcDbArc
 50
54.992923
 51
92.154299
  0
LINE
  8
Layer0$C$L0
 62
     5
 10
-0.306652
 20
1.738924
 11
-0.230936
 21
1.685894
  0
LINE
  8
Layer0$C$L0
 62
     5
 10
-0.431353
 20
1.740533
 11
-0.325601
 21
1.744511
  0
ARC
  8
Layer0$C$L0
 62
     5
 10
-0.429436
 20
1.689569
 40
5.100000E-02
100
AcDbArc
 50
92.154299
 51
180.000005
  0
ARC
  8
Layer0$C$L0
 62
     5
 10
-0.429436
 20
0.979569
 40
5.100000E-02
100
AcDbArc
 50
180.000005
 51
267.845677
  0
LINE
  8
Layer0$C$L0
 62
     5
 10
-0.431353
 20
0.928605
 11
-0.325601
 21
0.924627
  0
LINE
  8
Layer0$C$L0
 62
     5
 10
-0.480436
 20
1.689569
 11
-0.480436
 21
0.979569
  0
LINE
  8
Layer0$C$L0
 10
-4.118353
 20
-0.773132
 11
-3.618353
 21
-0.773132
  0
LINE
  8
Layer0$C$L0
 10
-4.118353
 20
-0.853132
 11
-3.618353
 21
-0.853132
  0
LINE
  8
Layer0$C$L0
 10
-1.150987
 20
-0.773127
 11
-1.150987
 21
-0.853127
  0
LINE
  8
Layer0$C$L0
 10
-0.560436
 20
-0.693128
 11
-0.560436
 21
-0.113389
  0
LINE
  8
Layer0$C$L0
 10
-0.560436
 20
-0.113389
 11
-0.480436
 21
-0.113389
  0
LINE
  8
Layer0$C$L0
 10
-0.640436
 20
-0.853127
 11
-1.150987
 21
-0.853127
  0
LINE
  8
Layer0$C$L0
 10
-0.640436
 20
-0.773127
 11
-1.150987
 21
-0.773127
  0
ARC
  8
Layer0$C$L0
 10
-0.640436
 20
-0.693128
 40
8.000000E-02
100
AcDbArc
 50
270.000001
 51
359.999983
  0
ARC
  8
Layer0$C$L0
 10
-0.640436
 20
-0.693128
 40
0.160000
100
AcDbArc
 50
270.000001
 51
359.999983
  0
ARC
  8
Layer0$C$L0
 10
0.543186
 20
-0.693128
 40
0.160000
100
AcDbArc
 50
180.000005
 51
270.000001
  0
ARC
  8
Layer0$C$L0
 10
0.543186
 20
-0.693128
 40
8.000000E-02
100
AcDbArc
 50
180.000005
 51
270.000001
  0
LINE
  8
Layer0$C$L0
 10
0.543186
 20
-0.773127
 11
1.053737
 21
-0.773127
  0
LINE
  8
Layer0$C$L0
 10
0.543186
 20
-0.853127
 11
1.053737
 21
-0.853127
  0
LINE
  8
Layer0$C$L0
 10
0.463186
 20
-0.113389
 11
0.383186
 21
-0.113389
  0
LINE
  8
Layer0$C$L0
 10
-0.230936
 20
9.568820E-03
 11
0.133686
 21
9.568820E-03
  0
LINE
  8
Layer0$C$L0
 10
-0.230936
 20
-0.740431
 11
-0.230936
 21
9.568820E-03
  0
LINE
  8
Layer0$C$L0
 10
-0.230936
 20
-0.740431
 11
0.133686
 21
-0.740431
  0
LINE
  8
Layer0$C$L0
 10
0.463186
 20
-0.693128
 11
0.463186
 21
-0.113389
  0
LINE
  8
Layer0$C$L0
 10
0.133686
 20
-0.740431
 11
0.133686
 21
9.568820E-03
  0
LINE
  8
Layer0$C$L0
 10
0.133686
 20
0.959569
 11
0.133686
 21
1.709569
  0
LINE
  8
Layer0$C$L0
 10
0.463186
 20
1.084569
 11
0.463186
 21
1.584569
  0
LINE
  8
Layer0$C$L0
 10
-0.560436
 20
1.084569
 11
-0.560436
 21
1.584569
  0
LINE
  8
Layer0$C$L0
 10
-3.618353
 20
-0.113394
 11
-3.618353
 21
-0.853132
  0
LINE
  8
Layer0$C$L0
 10
-4.118353
 20
-0.113394
 11
-4.118353
 21
-0.853132
  0
ARC
  8
Layer0$C$L0
 10
-3.868356
 20
-0.365431
 40
0.409942
100
AcDbArc
 50
307.578090
 51
592.421922
  0
LINE
  8
Layer0$C$L0
 10
-3.618356
 20
-0.113389
 11
-4.118356
 21
-0.113389
  0
LINE
  8
Layer0$C$L0
 10
1.053737
 20
-0.773127
 11
1.053737
 21
-0.853127
  0
LINE
  8
Layer0$C$L0
 10
-0.230936
 20
0.959569
 11
0.133686
 21
0.959569
  0
LINE
  8
Layer0$C$L0
 10
-0.230936
 20
0.959569
 11
-0.230936
 21
1.709569
  0
LINE
  8
Layer0$C$L0
 10
-0.230936
 20
1.709569
 11
0.133686
 21
1.709569
  0
LINE
  8
Layer0$C$L0
 10
1.053737
 20
1.584569
 11
1.053737
 21
1.084569
  0
LINE
  8
Layer0$C$L0
 10
1.053737
 20
1.584569
 11
0.383186
 21
1.584569
  0
LINE
  8
Layer0$C$L0
 10
1.053737
 20
1.084569
 11
0.383186
 21
1.084569
  0
LINE
  8
Layer0$C$L0
 10
0.817517
 20
1.462521
 11
0.738777
 21
1.462521
  0
LINE
  8
Layer0$C$L0
 10
0.817517
 20
1.206616
 11
0.738777
 21
1.206616
  0
ARC
  8
Layer0$C$L0
 10
0.817517
 20
1.334569
 40
0.127953
100
AcDbArc
 50
270.000001
 51
449.999992
  0
ARC
  8
Layer0$C$L0
 10
0.738777
 20
1.334569
 40
0.127953
100
AcDbArc
 50
90.000009
 51
270.000001
  0
ARC
  8
Layer0$C$L0
 10
-0.836026
 20
1.334569
 40
0.127953
100
AcDbArc
 50
270.000001
 51
449.999992
  0
ARC
  8
Layer0$C$L0
 10
-0.914767
 20
1.334569
 40
0.127953
100
AcDbArc
 50
90.000003
 51
270.000001
  0
LINE
  8
Layer0$C$L0
 10
-0.914767
 20
1.206616
 11
-0.836026
 21
1.206616
  0
LINE
  8
Layer0$C$L0
 10
-0.914767
 20
1.462521
 11
-0.836026
 21
1.462521
  0
LINE
  8
Layer0$C$L0
 10
-1.150987
 20
1.084569
 11
-0.480436
 21
1.084569
  0
LINE
  8
Layer0$C$L0
 10
-1.150987
 20
1.584569
 11
-0.480436
 21
1.584569
  0
LINE
  8
Layer0$C$L0
 10
-1.150987
 20
1.584569
 11
-1.150987
 21
1.084569
  0
ENDSEC
  0
EOF
